Files
ESE/07 Game Music/SPLENDOR/SPLENDOR.tja
T
2023-06-15 19:15:39 -05:00

352 lines
14 KiB
Plaintext

//TJADB Project
TITLE:SPLENDOR
TITLEJA:SPLENDOR
SUBTITLE:--Yasuhisa Watanabe/Kaiser Knucle
SUBTITLEJA:タイトー「カイザーナックル」より
BPM:155
WAVE:SPLENDOR.ogg
OFFSET:-1.887
DEMOSTART:83.951
COURSE:Oni
LEVEL:8
SCOREINIT:530
SCOREDIFF:140
#START
100000100000200000100000100100000200000100100000,
100000100000200000100000000100100000200000100100,
100000100000200000100000100100000200000100100000,
100000200000000000200000100000100000200000100100,
100000100000200000100000100100000200000100100000,
100000100000200000100000000100100000200000000000,
100000000000200200000000100000100000200000100100,
100000100000200200000000100000100000200000200200,
100000100000200000100100100000100100200000100000,
000000100000200000100100100000100100200000100000,
100000100000200000100100100000100100200000100000,
000000100000200000100100100000200200200000100000,
000000200000100000000100200000100100200000100000,
000000200000100000000100200000200200200000100000,
000000100000200000100100100000100100200000100000,
000000100000200000101010100000200000000000000000,
100000100000200000100100100000100100200000100000,
000000100000200000100100100000100100200000100000,
100000100000200000100100100000100100200000100000,
000000100000200000100100100000200200200000100000,
000000200000100000000100200000100100200000100000,
000000200000100000000100200000200200200000100000,
000000100000200000100100100000100100200000100000,
000000100000000000000000200000200200000100100000,
100000200200100100100000200000000100000000100100,
200200100100100000200000100000200200100000100000,
000000100000200000200200100000100000200000100000,
000000100000200000200200100000200200100100000000,
100000200200100100100000200000000100000000100100,
200200100100100000200000100000200200100000100000,
000000100000200000200200100000000200100000100000,
101010100000200000200000000000100000000000100000,
100000000000000000100000200000100000000000100000,
100000000000100000000000200000000000000000000000,
100000000000000000200000100000200000000000000000,
100000200200000000200200000000200200000000200200,
000000200200000000200200000000000000300000000000,
#GOGOSTART
100000000100200000100000100000200000100000100000,
000000100100200200100000200000100000200000100000,
100000000100200000100000100000200000100000100000,
000000100100200200200000200000200000100000100000,
100000100000200000100000000000100000200000100000,
000000100000200000100000100000000100200000100000,
000000100000200000100000000000100000200000100000,
100000000100200000100000000000100000200000000000,
100000000100200000100000100000200000100000100000,
000000100100200200100000200000100000200000100000,
100000000100200000100000100000200000100000100000,
000000100100200200200000200000200000100000100000,
100000100000200000100000000000100000200000100000,
000000100000200000100000100000000100200000100000,
000000100000200000000000100000000000200000500000,
000000000000000000000000000000000000000008000000,
#GOGOEND
100000000000100100200000100000000200000000100000,
000000200000200000100000100100000200200000100000,
000000100000200000100000100000100000200000100000,
000000100000200200100100200200100100200200100100,
100000000000200000000000100000100000200000100000,
000000100000200000100000100100000200200000100000,
100000000000200000000000100000100000200200100100,
100100000200000100000100200000000200000000200000,
100000000000200200000200100000100000200000100000,
000000100000200200000200100100100000200200000200,
100000000000200200000200100200200000200000100000,
000000100000200200200200100100100100200200100100,
100000100000200000100100100000200000100100200000,
000000100000200000100100100000200000100100200000,
000000100000200000100000100000200100100100200000,
000000200000000000100000200000100200000000100000,
#END
COURSE:Hard
LEVEL:7
BALLOON:14,12
SCOREINIT:660
SCOREDIFF:170
#START
100000100000200000000000100100000200000000100000,
100000100000200000100000000000100000200000100000,
100000100000200000000000100100000200000000100000,
000000200000000000200000100000100000200000000000,
100000100000200000000000100100000200000000100000,
100000000000200000100000000000100000700000000000,
000000000000000000000000000000000000000000000000,
000000000000000000000800000000000000100000100100,
100000100000200000100000000000100000200000100000,
000000100000200000100000000000100000200000000000,
100000100000200000100000000000100000200000100000,
000000100000200000100000000000100000100000100000,
000000200000100000000000000000100000100000100000,
000000200000100000000000000000200000000000200000,
000000100000200000000000100000100000200000100000,
000000100000200000000000300000400000000000000000,
100000100000200000100000000000100000200000100000,
000000100000200000100000000000100000200000000000,
100000100000200000100000000000100000200000100000,
000000100000200000100000000000100000100000100000,
000000200000100000000000000000100000100000100000,
000000200000100000100000000000200000100000200000,
000000100000100000200000000000100000100000200000,
000000000000000000000000000000000000000000000000,
100000100100100000000000200000200000000000100000,
100100100000200000200000000000200200200000100000,
000000100000200000200000100000200000000000100000,
000000100000200000200000100000100100100000000000,
100000100100100000000000200000200000000000100000,
100100100000200000200000000000200200200000100000,
000000100000200000200000100000100000000000100000,
000000000000200000000000200000000000200000000000,
100000000000000000100000200000000000000000000000,
100000000000100000000000200000000000000000000000,
100000000000000000000000200000000000000000000000,
700000000000000000000000000000000000000000000800,
000000000000000000000000000000000000300000000000,
#GOGOSTART
100000000100100000100000100000200000000000100000,
000000100100100000100000200000100000200000000000,
100000000100100000200000200000200000000000200000,
000000100100100000100000200000100000200000000000,
100000100000200000100000000000100000200000100000,
000000100000000100000000100000200000000000000000,
000000000000100000000000100000000000100000000000,
100000000000200000100000000000000000400000000000,
100000000100100000100000100000200000000000100000,
000000100100100000100000200000100000200000000000,
100000000100100000200000200000200000000000200000,
000000100100100000100000200000100000200000000000,
100000100000200000100000000000100000200000100000,
000000100000000100000000100000000100000000100000,
000000100000200000000000100000000000200000500000,
000000000000000000000000000000000000000800000000,
#GOGOEND
100000000000100100100000100000000000100100100000,
100000200000200000100000000000200000200000100000,
000000100000200000000000100000200000200000100000,
000000100000100000000000500000000000000800000000,
100000000000200000000000100000100000200000100000,
000000100000200000000000100000100000200000000000,
100000000000200000000000100000100000200000100000,
000000100000200000500000000000000800000000000000,
100000000000200000100100100000100000200000100000,
000000100000200000100100100000100000200000100000,
000000100000200000100100100000100000200000100000,
000000100000500000000000000000000800000000000000,
300000000000300000000000300000400000000000400000,
000000000000300000000000300000300000000000600000,
000000000000000000000000000800000000000000300000,
#END
COURSE:Normal
LEVEL:6
BALLOON:17,12,8
SCOREINIT:1020
SCOREDIFF:250
#START
100000100000100000000000100000000000000000000000,
100000000000000000100000000000000000000000000000,
100000100000100000000000100000000000000000000000,
000000300000000000300000000000000000000000000000,
100000100000100000000000100000000000000000000000,
100000000000000000100000000000000000700000000000,
000000000000000000000000000000000000000000000000,
000000000000000000000000000000800000000000000000,
100000000000200000000000000000100000000000100000,
000000000000000000000000000000200000000000000000,
100000000000200000000000000000100000000000100000,
000000000000000000000000000000100000100000100000,
000000000000000000000000000000100000100000100000,
000000000000000000000000000000100000000000500000,
000000000000000000000000000000800000000000000000,
000000000000000000000000000000000000000000000000,
100000000000200000000000000000100000000000100000,
000000000000000000000000000000200000000000000000,
100000000000200000000000000000100000000000100000,
000000000000000000000000000000100000100000100000,
000000000000000000000000000000100000100000100000,
000000100000100000100000000000100000000000500000,
000000000000000000000000000000000000800000000000,
000000000000000000000000000000000000000000000000,
100000000000100000000000100000100000000000100000,
000000100000100000000000000000000000000000000000,
100000000000100000000000100000100000000000100000,
000000100000100000000000000000000000000000000000,
100000000000100000000000100000100000000000100000,
000000100000100000000000000000000000000000000000,
100000000000100000000000100000100000000000100000,
000000000000100000000000100000000000100000000000,
100000000000000000100000200000000000000000000000,
100000000000000000100000200000000000000000000000,
100000000000000000100000200000000000000000000000,
700000000000000000000000000000000000000000000000,
000000000000000000000000000000800000000000000000,
#GOGOSTART
100000000000200000000000100000100000000000100000,
000000000000200000000000000000000000200000000000,
100000000000200000000000100000100000000000100000,
000000000000000000000000000000100000100000000000,
100000000000200000000000000000100000100000100000,
000000000000200000000000100000000000200000000000,
000000000000100000000000100000000000100000000000,
100000000000000000100000000000000000000000000000,
100000000000200000000000100000100000000000100000,
000000000000200000000000000000000000200000000000,
100000000000200000000000100000100000000000100000,
000000000000000000000000000000100000100000000000,
100000000000200000000000000000100000100000100000,
000000000000200000000000100000000000200000100000,
000000000000200000000000100000000000500000000000,
000000000000000000000000000000000000800000000000,
#GOGOEND
000000000000100000000000100000000000100000100000,
000000000000100000000000100000000000100000100000,
000000000000100000000000100000000000100000100000,
000000000000300000000000300000000000300000000000,
100000000000200000000000100000100000100000100000,
000000000000200000000000100000100000100000000000,
100000000000200000000000100000100000100000500000,
000000000000000000000000000000800000000000000000,
100000000000100000000000100000000000100000100000,
000000000000200000000000200000000000200000200000,
000000000000100000000000100000000000100000100000,
000000000000200000000000200000000000200000000000,
100000000000000000000000100000100000000000100000,
000000000000100000000000100000100000000000700000,
000000000000000000000000000000000000000000800000,
#END
COURSE:Easy
LEVEL:4
BALLOON:14,10,8
SCOREINIT:1030
SCOREDIFF:300
#START
300000000000000000000000000000000000000000000000,
100000000000000000100000000000000000000000000000,
300000000000000000000000000000000000000000000000,
000000100000000000100000000000000000000000000000,
300000000000000000000000000000000000000000000000,
100000000000000000100000000000000000700000000000,
000000000000000000000000000000000000000000000000,
000000000000000000000000000000800000000000000000,
100000000000000000000000000000100000000000100000,
000000000000000000000000000000000000000000000000,
100000000000000000000000000000100000000000100000,
000000000000000000000000000000100000000000100000,
000000000000000000000000000000200000000000200000,
000000000000000000000000000000100000000000500000,
000000000000000000000000000000800000000000000000,
000000000000000000000000000000000000000000000000,
100000000000000000000000000000100000000000100000,
000000000000000000000000000000100000000000100000,
000000000000000000000000000000100000000000100000,
000000000000000000000000000000100000000000100000,
000000000000000000000000000000200000000000200000,
000000000000000000000000000000100000000000500000,
000000000000000000000000000000000000800000000000,
000000000000000000000000000000000000000000000000,
100000000000100000000000100000000000000000000000,
100000000000100000000000000000000000000000000000,
100000000000000000000000200000000000000000000000,
100000000000000000000000200000000000000000000000,
100000000000100000000000100000000000000000000000,
100000000000100000000000000000000000000000000000,
100000000000000000000000200000000000000000000000,
100000000000100000000000100000000000100000000000,
100000000000000000000000200000000000000000000000,
100000000000000000000000200000000000000000000000,
100000000000000000000000200000000000000000000000,
700000000000000000000000000000000000000000000000,
000000000000000000000000000000800000000000000000,
#GOGOSTART
100000000000000000000000100000000000000000500000,
000000000000000000000000800000000000000000000000,
100000000000000000000000100000000000000000500000,
000000000000000000000000800000000000000000000000,
100000000000000000000000000000100000000000100000,
000000000000000000000000100000000000000000000000,
000000000000100000000000000000000000100000000000,
500000000000000000000000800000000000000000000000,
100000000000000000000000100000000000000000500000,
000000000000000000000000800000000000000000000000,
100000000000000000000000100000000000000000500000,
000000000000000000000000800000000000000000000000,
100000000000000000000000000000100000000000100000,
000000000000000000000000100000000000000000500000,
000000000000000000000000800000000000000000000000,
500000000000000000000000000000000000800000000000,
#GOGOEND
000000000000100000000000100000000000000000000000,
000000000000100000000000100000000000000000000000,
000000000000100000000000100000000000000000000000,
000000000000300000000000300000000000300000000000,
100000000000000000000000200000000000000000000000,
100000000000000000000000200000000000000000000000,
100000000000000000000000200000000000000000000000,
500000000000000000000000800000000000000000000000,
000000000000100000000000100000000000100000000000,
000000000000100000000000100000000000100000000000,
000000000000100000000000100000000000100000000000,
000000000000500000000000800000000000000000000000,
100000000000100000000000100000000000000000000000,
100000000000100000000000100000000000000000700000,
000000000000000000000000000000000000000000800000,
#END