Files
ESE/02 Anime/Pretty Cure 5, Full Throttle GO GO!/Pretty Cure 5, Full Throttle GO GO!.tja
T
2023-09-16 17:39:30 -05:00

447 lines
11 KiB
Plaintext

//TJADB Project
TITLE:Pretty Cure 5, Full Throttle GO GO!
TITLEJA:プリキュア5、フル・スロットル GO GO!
SUBTITLE:--Full Throttle/Yes! Pretty Cure 5 GoGo!
SUBTITLEJA:Yes!プリキュア5
BPM:167
WAVE:Pretty Cure 5, Full Throttle GO GO!.ogg
OFFSET:-2.365
DEMOSTART:43.330
COURSE:Oni
LEVEL:7
SCOREINIT:580
SCOREDIFF:140
#START
100000000000100000000000200000200000000000100000,
000000300000000000600000000000000000000000000000,
000000000000000000000000000000000008000000000000,
400000000000000000000000000000000000000000000000,
#GOGOSTART
100000100000200200100000100000100000200200100000,
100000100000100100100000000000200200200000100000,
100000100100200000100000100000100100200000000000,
300000000000300000300000000000400000400000300000,
000000000000000000000000300000000000000000100000,
000000100000200200100000100000100000200200100000,
000000300000000000000000300000400000000000000000,
300000000000300000300000000000000000000000000000,
#GOGOEND
100000100000200000100000000000100000200000100000,
100000100000200000100000100000100000200000000000,
100000100000200000100000000000100000200000100000,
100000100000200000300000000000400000000000000000,
100000100000200000100000000000100000200000100000,
100000100000200000100000100000100000200000000000,
100000100000200000100000000000100000200000100000,
000000100000200000100000100100100000100100100000,
100000000000100000100000200000100000000000100000,
000000100000100000100000200000100000200000100000,
000000100000200000000000100000200000000000200000,
200000000000200000200000000000000000000000200000,
000000100100100000100000100000100000000000200000,
000000100100100000100000100000100000000000200000,
000000100100100000100000100000000000100000100000,
000000100100100000100100100000200200200000200000,
000000000000400000000000000000000000000000000000,
#GOGOSTART
100000100000200200100000100000100000200200100000,
100000100000200200100000200200100000200200100000,
100000100000200200100000100000100000200200100000,
100000100000200200100000200200100000200200100000,
100000100100200000100000100000100100200000100000,
100000100100200000100000100000100100200000100000,
100100100100200000100000100100100100200000100000,
100100200000100100200000200200200000200000000000,
100000100000200200100000100000100000200200100000,
100000100000200200100000200200100000200200100000,
100000100000200200100000100000100000200200100000,
100000100000200200100000200200100000200200100000,
100000100100200000100000100000100100200000100000,
100000100100200000100000100000100100200000100000,
100100100100200000100000100100100100200000100000,
000000200200100000200200100000200000000000000000,
#GOGOEND
200000000000100000000000100000100000200000000000,
100000000000100000000000100000100000200000000000,
100000000000100000000000100000000000200000100000,
000000300000000000300000000000000000000000000000,
#GOGOSTART
100000100000200200100000100000100000200200100000,
100000100000100100100000000000200200200000100000,
100000100100200000100000100000100100200000000000,
300000000000300000300000000000400000400000300000,
000000100000200200100000300000100000200200100000,
000000100000200200100100200200100100200200100000,
000000300000000000000000100100200000000000100000,
300000000000300000300000000000000000000000000000,
#GOGOEND
#END
COURSE:Hard
LEVEL:6
BALLOON:10
SCOREINIT:590
SCOREDIFF:150
#START
10102201,
03090000,
0008,
,
#GOGOSTART
1122,
10110000,
1122,
30330003,
00003001,
01210121,
03003400,
30330000,
#GOGOEND
#SECTION
#BRANCHSTART p,75,90
#N
10201120,
10210000,
10201021,
00030300,
10201120,
10210000,
10210121,
03030000,
10102101,
01102020,
01101102,
20220002,
01111002,
01111002,
01111050,
000000000000000000000000000000000000000000000008,
#E
11201120,
11210120,
11210121,
00030300,
11201120,
11210120,
11210121,
03030000,
10112101,
01102121,
01101102,
20220002,
01111002,
01111002,
01111050,
000000000000000000000000000000000000000000000008,
#M
11211120,
11210120,
11210121,
01030300,
11211121,
11210120,
11210121,
03030000,
1011101020222020,
0010100011101110,
01101102,
2000202000222020,
0011101010100020,
0011101010100020,
0011101010105000,
000000000000000000000000000000000000000000000008,
#GOGOSTART
#SECTION
#BRANCHSTART p,75,90
#N
10410121,
01201210,
10210121,
01201210,
33,
3011,
10110011,
,
10210121,
01201210,
10210121,
01201210,
33,
3011,
500000000000000000000000000000000000000000000008,
,
#GOGOEND
1112,
1112,
10101011,
03030000,
#E
11410121,
01201210,
11210121,
01201210,
33,
3011,
10110011,
,
11210121,
01201210,
11210121,
01201210,
33,
3011,
500000000000000000000000000000000000000000000008,
,
#GOGOEND
10101120,
10101120,
10101011,
03030000,
#M
1110201011102010,
1110201000102000,
1110201011102010,
1110201000102000,
3131,
3211,
10110011,
02020200,
1110201011102010,
1110201000102000,
1110201011102010,
1110201000102000,
3131,
3211,
10110011,
02020200,
#GOGOEND
20101120,
10101120,
10101011,
03030000,
#GOGOSTART
#SECTION
#BRANCHSTART p,75,90
#N
1122,
10110000,
1122,
30330003,
00003001,
01210121,
03003400,
30330000,
#E
11102220,
10110220,
11102220,
30330003,
00003001,
01210121,
03003400,
30330000,
#M
1011101020222020,
1000101000222020,
1011101020222000,
30330003,
00003001,
01210121,
03003400,
30330000,
#BRANCHEND
#GOGOEND
#END
COURSE:Normal
LEVEL:2
BALLOON:6,5
SCOREINIT:1120
SCOREDIFF:470
#START
000000000000000000000000000000000000000000000000,
000000000000000000900000000000000000000000000000,
000000000000000000000000000000000000000000000800,
000000000000000000000000000000000000000000000000,
#GOGOSTART
100000000000100000000000100000000000000000000000,
100000000000000000000000000000000000000000000000,
100000000000100000000000100000000000000000000000,
100000000000000000000000000000000000000000300000,
000000000000000000000000300000000000000000000000,
300000000000000000000000000000000000000000000000,
000000300000000000000000300000000000000000000000,
300000000000000000000000000000000000000000000000,
#GOGOEND
100000000000000000000000100000000000000000000000,
100000000000100000000000000000000000000000000000,
100000000000000000000000100000000000000000000000,
100000000000000000000000000000000000000000000000,
100000000000000000000000100000000000000000000000,
100000000000100000000000000000000000000000000000,
200000000000000000000000200000000000000000000000,
200000000000000000000000000000000000000000000000,
100000000000100000000000100000000000000000000000,
100000000000100000000000100000000000000000000000,
500000000000000000000000000000000000000000000800,
000000000000000000000000000000000000000000000000,
100000000000100000000000100000000000000000000000,
100000000000100000000000100000000000000000000000,
100000000000100000000000100000000000500000000000,
000000000000000000000000000000000000000800000000,
000000000000000000000000000000000000000000000000,
#GOGOSTART
100000000000100000000000000000000000100000000000,
100000000000000000000000000000000000000000000000,
100000000000100000000000000000000000100000000000,
100000000000000000000000000000000000000000000000,
300000000000000000000000300000000000000000000000,
300000000000000000000000300000000000000000000000,
100000000000100000000000000000000000100000000000,
100000000000000000000000000000000000000000000000,
100000000000100000000000000000000000100000000000,
100000000000000000000000000000000000000000000000,
100000000000100000000000000000000000100000000000,
100000000000000000000000000000000000000000000000,
300000000000000000000000300000000000000000000000,
300000000000000000000000300000000000000000000000,
900000000000000000000000000000000000000000000000,
800000000000000000000000000000000000000000000000,
#GOGOEND
200000000000000000000000100000000000000000000000,
200000000000000000000000100000000000000000000000,
100000000000100000000000100000000000100000000000,
000000000000000000000000000000000000000000000000,
#GOGOSTART
100000000000100000000000100000000000000000000000,
100000000000000000000000000000000000000000000000,
100000000000100000000000100000000000000000000000,
200000000000000000000000000000000000000000300000,
000000000000000000000000300000000000000000000000,
300000000000000000000000000000000000000000000000,
000000300000000000000000300000000000000000000000,
300000000000300000000000000000000000000000000000,
#GOGOEND
#END
COURSE:Easy
LEVEL:2
BALLOON:5,3
SCOREINIT:1340
SCOREDIFF:670
#START
000000000000000000000000000000000000000000000000,
000000000000000000000000700000000000000000000000,
000000000000000000000000000000800000000000000000,
000000000000000000000000000000000000000000000000,
#GOGOSTART
100000000000000000000000100000000000000000000000,
100000000000000000000000000000000000000000000000,
100000000000000000000000100000000000000000000000,
100000000000000000000000000000000000000000300000,
000000000000000000000000300000000000000000000000,
000000000000000000000000000000000000000000000000,
000000000000000000000000300000000000000000000000,
300000000000000000000000000000000000000000000000,
#GOGOEND
100000000000000000000000000000000000000000000000,
100000000000000000000000000000000000000000000000,
100000000000000000000000100000000000000000000000,
100000000000000000000000000000000000000000000000,
100000000000000000000000000000000000000000000000,
100000000000000000000000000000000000000000000000,
100000000000000000000000100000000000000000000000,
100000000000000000000000000000000000000000000000,
200000000000000000000000000000000000000000000000,
200000000000000000000000000000000000000000000000,
500000000000000000000000000000000000000000800000,
000000000000000000000000000000000000000000000000,
100000000000000000000000000000000000000000000000,
100000000000000000000000000000000000000000000000,
100000000000100000000000100000000000500000000000,
000000000000000000000000000000000000800000000000,
000000000000000000000000000000000000000000000000,
#GOGOSTART
100000000000000000000000000000000000000000000000,
100000000000000000000000000000000000000000000000,
100000000000000000000000000000000000000000000000,
100000000000000000000000000000000000000000000000,
300000000000000000000000300000000000000000000000,
300000000000000000000000300000000000000000000000,
500000000000000000000000000000000000000000800000,
000000000000000000000000000000000000000000000000,
100000000000000000000000000000000000000000000000,
100000000000000000000000000000000000000000000000,
100000000000000000000000000000000000000000000000,
100000000000000000000000000000000000000000000000,
300000000000000000000000300000000000000000000000,
300000000000000000000000300000000000000000000000,
9,
0008,
#GOGOEND
100000000000000000000000000000000000000000000000,
200000000000000000000000000000000000000000000000,
100000000000000000000000100000000000000000000000,
300000000000000000000000000000000000000000000000,
#GOGOSTART
100000000000100000000000100000000000000000000000,
100000000000100000000000000000000000000000000000,
100000000000100000000000100000000000000000000000,
100000000000100000000000000000000000000000300000,
000000000000000000000000300000000000000000000000,
000000000000000000000000000000000000000000000000,
000000300000000000000000000000000000000000000000,
300000000000000000000000000000000000000000000000,
#END