382 lines
15 KiB
Plaintext
382 lines
15 KiB
Plaintext
//TJADB Project
|
||
TITLE:360°
|
||
TITLEJA:360°
|
||
SUBTITLE:--NAOKI-T/Doraemon: Nobita’s Space Heroes
|
||
SUBTITLEJA:映画「ドラえもん のび太の宇宙英雄記」より
|
||
BPM:157.980
|
||
WAVE:360°.ogg
|
||
OFFSET:-1.723
|
||
DEMOSTART:13.864
|
||
|
||
COURSE:Oni
|
||
LEVEL:7
|
||
BALLOON:14,14,14,14,13,19,14,13
|
||
SCOREINIT:740
|
||
SCOREDIFF:183
|
||
|
||
|
||
#START
|
||
|
||
|
||
500000000000000000000000000000000008000000700000,
|
||
000000000000000000000000000000000000800000000000,
|
||
600000000000000000000000000000000008000000700000,
|
||
000000000000000000000000000000000000800000000000,
|
||
100000000000200000000200100000200000100000200000,
|
||
000000100000200000000200100000200000200000000000,
|
||
500000000000000008000000100000100000000000700000,
|
||
000000000000000000000000000000000000800000000000,
|
||
|
||
#GOGOSTART
|
||
100000000000200000100100200000100000200000100000,
|
||
000000100000200000100100200000100000200000200000,
|
||
100000000000200000100100200000100000200000500000,
|
||
000000000000000000000008000000000000100000100100,
|
||
200000000000200000200200100000000000100000100100,
|
||
200000000000200000200200100000200000200000000000,
|
||
700000000000000000000000000000000000000000800000,
|
||
000000200000200000200200200000200000000000000000,
|
||
100000000000200000100100200000100000200000100000,
|
||
000000100000200000100100200000100000200000200000,
|
||
100000000000200000100100200000100000200000500000,
|
||
000000000000000000000008000000000000700000000000,
|
||
000000000000000000000000800000000000200000100000,
|
||
000000200000100000200200100000100000200000000000,
|
||
300000300000300000300000300000000000000000000000,
|
||
400000400000400000400000400000000000300000400000,
|
||
|
||
#GOGOEND
|
||
000000000000200000000200100000200000100000200000,
|
||
000000100000200000000200100000200000200000000000,
|
||
100000000000200000000200100000200000100000500000,
|
||
000000000000000000000000000000000008000000000000,
|
||
100000200000100000200000100000100000200000200000,
|
||
100000200000100000200000100000100000200200200000,
|
||
100000200000100000200000100000100000200000200000,
|
||
100000200000100000200000100000100000200200200000,
|
||
100000200000100000200000100000100000200000200000,
|
||
100000000000300000000000400000000000000000600000,
|
||
000000000000000000000000000000000000000008000000,
|
||
100100100000200000200100100000100000100000200200,
|
||
100000200000100000200000100000100000200000200000,
|
||
100000200000100000200000100000100000200200200000,
|
||
100000200000100000200000100000100000200000200000,
|
||
100000200000100000200000100000100000200200200000,
|
||
100000200000100000200000100000100000200000200000,
|
||
100000000000200000200100100000100000100000200200,
|
||
100000000000200000200100100000100000200000500000,
|
||
000000000000000000000008000000000000000000000000,
|
||
200000000000000000000000200000000000000000000000,
|
||
200000000000200000200000200000000000000000000000,
|
||
200000000000000000000000700000000000000000000000,
|
||
000000000000000000000000000000000000800000000000,
|
||
100000000000100000100000200000000000200000200000,
|
||
100000000000100000100000200000100000200000100000,
|
||
200000000000100000200100100000100000200000100000,
|
||
500000000000000000000000000000000000000008000000,
|
||
100000000000200000000000100000100000000000200000,
|
||
000000000000200200200000200200200000200200200000,
|
||
|
||
#GOGOSTART
|
||
100000000000200000100100200200100000200000100000,
|
||
000000100000200000100100200200100000200000200000,
|
||
100000000000200000100100200200100000200000500000,
|
||
000000000000000000000008000000000000100000100100,
|
||
200000000000200000200200100000000000100000100100,
|
||
200000000000200000200200100000200000200000000000,
|
||
700000000000000000000000000000000000000000800000,
|
||
000000200000200000200200200000200200200000200200,
|
||
100000000000200000100100200200100000200000100000,
|
||
000000100000200000100100200200100000200000200000,
|
||
100000000000200000100100200200100000200000500000,
|
||
000000000000000000000008000000000000700000000000,
|
||
000000000000000000000000800000000000200000100000,
|
||
000000200000100000200200100000100000200000000000,
|
||
300000300000300000300000300000000000000000000000,
|
||
400000400000400000400000400000000000300000400000,
|
||
|
||
#GOGOEND
|
||
|
||
|
||
#END
|
||
|
||
|
||
COURSE:Hard
|
||
LEVEL:5
|
||
BALLOON:12,12,12,12,12,18,12,12
|
||
SCOREINIT:730
|
||
SCOREDIFF:185
|
||
|
||
|
||
#START
|
||
|
||
|
||
500000000000000000000000000000000800000000700000,
|
||
000000000000000000000000000000000800000000000000,
|
||
600000000000000000000000000000000800000000700000,
|
||
000000000000000000000000000000000800000000000000,
|
||
100000000000200000000100100000200000000000100000,
|
||
000000100000200000000100100000200000000000000000,
|
||
500000000000000800000000100000100000000000700000,
|
||
000000000000000000000000000000000800000000000000,
|
||
|
||
#GOGOSTART
|
||
100000000000200000000000100000100000200000100000,
|
||
000000100000200000000000100000100000200000200000,
|
||
100000000000200000000000100000100000200000500000,
|
||
000000000000000000000800000000000000100000100000,
|
||
200000000000200000200000100000000000100000100000,
|
||
200000000000100000200000000000000000000000000000,
|
||
700000000000000000000000000000000000800000000000,
|
||
000000200000200000200200200000200000000000000000,
|
||
100000000000200000000000100000100000200000100000,
|
||
000000100000200000000000100000100000200000200000,
|
||
100000000000200000000000100000100000200000500000,
|
||
000000000000000000000800000000000000700000000000,
|
||
000000000000000000000800000000000000200000100000,
|
||
000000200000100000200000100000000000200000000000,
|
||
300000300000300000300000300000000000000000000000,
|
||
400000400000400000400000400000000000300000400000,
|
||
|
||
#GOGOEND
|
||
000000000000200000000100100000200000000000100000,
|
||
000000100000200000000100100000200000000000000000,
|
||
100000000000200000000100100000200000000000500000,
|
||
000000000000000000000000000000000800000000000000,
|
||
100000000000200000000000100000100000200000000000,
|
||
100000000000200000000000100000100000200000200000,
|
||
100000000000200000000000100000100000200000000000,
|
||
100000000000200000000000100000100000200000200000,
|
||
100000000000100000100000100000000000200000200000,
|
||
200000000000300000000000400000000000000000600000,
|
||
000000000000000000000000000000000000000800000000,
|
||
000000200000200000200000200000200000200000200000,
|
||
100000000000200000000000100000100000200000000000,
|
||
100000000000200000000000100000100000200000200000,
|
||
100000000000200000000000100000100000200000000000,
|
||
100000000000200000000000100000100000200000200000,
|
||
100000000000100000100000100000000000200000200000,
|
||
200000000000300000000000000000100000100000100000,
|
||
200000000000100000100000200000100000100000500000,
|
||
000000000000000000000800000000000000000000000000,
|
||
200000000000000000000000200000000000000000000000,
|
||
200000000000200000200000200000000000000000000000,
|
||
200000000000000000000000700000000000000000000000,
|
||
000000000000000000000000000000000800000000000000,
|
||
100000000000100000100000200000000000200000200000,
|
||
100000000000100000100000200000100000200000100000,
|
||
200000000000100000100100100000100000000000100000,
|
||
500000000000000000000000000000000000000800000000,
|
||
100000000000200000000000100000100000000000200000,
|
||
000000000000400000000000400000000000400000000000,
|
||
|
||
#GOGOSTART
|
||
100000000000200000000000100000100000200000100000,
|
||
000000100000200000000000100000100000200000200000,
|
||
100000000000200000000000100000100000200000500000,
|
||
000000000000000000000800000000000000100000100000,
|
||
200000000000200000200000100000000000100000100000,
|
||
200000000000100000200000000000000000000000000000,
|
||
700000000000000000000000000000000000800000000000,
|
||
000000200000200000200200200000200000000000000000,
|
||
100000000000200000000000100000100000200000100000,
|
||
000000100000200000000000100000100000200000200000,
|
||
100000000000200000000000100000100000200000500000,
|
||
000000000000000000000800000000000000700000000000,
|
||
000000000000000000000800000000000000200000100000,
|
||
000000200000100000200000100000000000200000000000,
|
||
300000300000300000300000300000000000000000000000,
|
||
400000400000400000400000400000000000300000400000,
|
||
|
||
#GOGOEND
|
||
|
||
|
||
#END
|
||
|
||
|
||
COURSE:Normal
|
||
LEVEL:3
|
||
BALLOON:5,5,10,5,5
|
||
SCOREINIT:1070
|
||
SCOREDIFF:423
|
||
|
||
|
||
#START
|
||
|
||
|
||
500000000000000000000000000000000800000000000000,
|
||
000000000000000000000000000000000000000000000000,
|
||
600000000000000000000000000000000800000000000000,
|
||
000000000000000000000000000000000000000000000000,
|
||
100000000000100000000000100000000000000000000000,
|
||
100000000000100000000000100000000000000000000000,
|
||
100000000000000000000000100000000000000000700000,
|
||
000000000000000000000000000000000800000000000000,
|
||
|
||
#GOGOSTART
|
||
100000000000200000000000000000000000000000000000,
|
||
100000000000200000000000000000000000000000000000,
|
||
100000000000200000000000500000000000000000000000,
|
||
000000000000000000000800000000000000100000000000,
|
||
000000000000100000000000000000000000100000000000,
|
||
000000000000100000000000000000000000000000000000,
|
||
900000000000000000000000000000000000000000000800,
|
||
000000000000000000000000000000000000000000000000,
|
||
100000000000200000000000000000000000000000000000,
|
||
100000000000200000000000100000000000100000000000,
|
||
100000000000200000000000500000000000000000000000,
|
||
000000000000000000000800000000000000100000000000,
|
||
000000000000100000000000000000000000100000000000,
|
||
000000000000100000000000100000000000000000000000,
|
||
300000000000300000000000300000000000000000000000,
|
||
400000000000400000000000400000000000300000000000,
|
||
|
||
#GOGOEND
|
||
000000000000100000000000000000000000000000000000,
|
||
000000000000100000000000000000000000000000000000,
|
||
000000000000100000000000000000000000500000000000,
|
||
000000000000000000000000000000000800000000000000,
|
||
100000000000000000000000100000000000000000000000,
|
||
100000000000200000000000100000000000000000000000,
|
||
100000000000000000000000100000000000000000000000,
|
||
100000000000200000000000100000000000000000000000,
|
||
100000000000100000000000200000000000200000000000,
|
||
100000000000300000000000400000000000000000600000,
|
||
000000000000000000000000000000000000000800000000,
|
||
000000000000000000000000000000000000000000000000,
|
||
100000000000000000000000100000000000000000000000,
|
||
100000000000200000000000100000000000000000000000,
|
||
100000000000000000000000100000000000000000000000,
|
||
100000000000200000000000100000000000000000000000,
|
||
100000000000100000000000200000000000200000000000,
|
||
300000000000300000000000000000600000000000000000,
|
||
000000000000000000000000000000000000000000000000,
|
||
000000000000000000000800000000000000000000000000,
|
||
200000000000000000000000200000000000000000000000,
|
||
200000000000200000000000200000000000000000000000,
|
||
200000000000000000700000000000000000000000000000,
|
||
000000000000000000000000000000000800000000000000,
|
||
100000000000100000000000100000000000000000000000,
|
||
100000000000100000000000100000000000100000000000,
|
||
300000000000000000000000300000000000000000000000,
|
||
900000000000000000000000000000000000000000000800,
|
||
000000000000000000000000000000000000000000000000,
|
||
000000000000200000000000200000000000200000000000,
|
||
|
||
#GOGOSTART
|
||
100000000000200000000000000000000000000000000000,
|
||
100000000000200000000000000000000000000000000000,
|
||
100000000000200000000000500000000000000000000000,
|
||
000000000000000000000800000000000000100000000000,
|
||
000000000000100000000000000000000000100000000000,
|
||
000000000000100000000000000000000000000000000000,
|
||
900000000000000000000000000000000000000000000800,
|
||
000000000000000000000000000000000000000000000000,
|
||
100000000000200000000000000000000000000000000000,
|
||
100000000000200000000000100000000000100000000000,
|
||
100000000000200000000000500000000000000000000000,
|
||
000000000000000000000800000000000000100000000000,
|
||
000000000000100000000000000000000000100000000000,
|
||
000000000000100000000000100000000000000000000000,
|
||
300000000000300000000000300000000000000000000000,
|
||
400000000000400000000000400000000000300000000000,
|
||
|
||
#GOGOEND
|
||
|
||
|
||
#END
|
||
|
||
|
||
COURSE:Easy
|
||
LEVEL:2
|
||
BALLOON:5,5,5,5
|
||
SCOREDIFF:1140
|
||
SCOREINIT:700
|
||
|
||
|
||
#START
|
||
|
||
|
||
500000000000000000000000000000000800000000000000,
|
||
000000000000000000000000000000000000000000000000,
|
||
600000000000000000000000000000000800000000000000,
|
||
000000000000000000000000000000000000000000000000,
|
||
100000000000000000000000000000000000000000000000,
|
||
100000000000000000000000000000000000000000000000,
|
||
100000000000000000000000100000000000000000700000,
|
||
000000000000000000000000000000000800000000000000,
|
||
|
||
#GOGOSTART
|
||
100000000000100000000000000000000000000000000000,
|
||
100000000000100000000000000000000000000000000000,
|
||
100000000000100000000000500000000000000000000000,
|
||
000000000000000000000800000000000000000000000000,
|
||
000000000000100000000000000000000000000000000000,
|
||
000000000000100000000000000000000000000000000000,
|
||
900000000000000000000000000000000000000000000800,
|
||
000000000000000000000000000000000000000000000000,
|
||
100000000000100000000000000000000000000000000000,
|
||
100000000000100000000000000000000000000000000000,
|
||
100000000000100000000000500000000000000000000000,
|
||
000000000000000000000000000000000800000000000000,
|
||
000000000000100000000000000000000000000000000000,
|
||
100000000000100000000000000000000000000000000000,
|
||
300000000000300000000000300000000000000000600000,
|
||
000000000000000000000000000000000000000800000000,
|
||
|
||
#GOGOEND
|
||
000000000000000000000000000000000000000000000000,
|
||
000000000000000000000000000000000000000000000000,
|
||
000000000000000000000000000000000000000000500000,
|
||
000000000000000000000000000000000800000000000000,
|
||
100000000000000000000000100000000000000000000000,
|
||
100000000000000000000000000000000000000000000000,
|
||
100000000000000000000000100000000000000000000000,
|
||
100000000000000000000000000000000000000000000000,
|
||
100000000000000000000000100000000000000000000000,
|
||
100000000000100000000000100000000000000000500000,
|
||
000000000000000000000000000000000000000800000000,
|
||
000000000000000000000000000000000000000000000000,
|
||
100000000000000000000000100000000000000000000000,
|
||
100000000000000000000000000000000000000000000000,
|
||
100000000000000000000000100000000000000000000000,
|
||
100000000000000000000000000000000000000000000000,
|
||
100000000000000000000000100000000000000000000000,
|
||
100000000000100000000000000000500000000000000000,
|
||
000000000000000000000000000000000000000000000000,
|
||
000000000000000000000800000000000000000000000000,
|
||
200000000000000000000000000000000000000000000000,
|
||
200000000000000000000000200000000000000000000000,
|
||
200000000000000000000000000000000000000000000000,
|
||
000000000000000000000000000000000000000000000000,
|
||
100000000000000000000000100000000000000000000000,
|
||
100000000000100000000000100000000000000000000000,
|
||
300000000000000000000000300000000000000000000000,
|
||
900000000000000000000000000000000000000000000800,
|
||
000000000000000000000000000000000000000000000000,
|
||
000000000000000000000000000000000000000000000000,
|
||
|
||
#GOGOSTART
|
||
100000000000100000000000000000000000000000000000,
|
||
100000000000100000000000000000000000000000000000,
|
||
100000000000100000000000500000000000000000000000,
|
||
000000000000000000000800000000000000000000000000,
|
||
000000000000100000000000000000000000000000000000,
|
||
000000000000100000000000000000000000000000000000,
|
||
900000000000000000000000000000000000000000000800,
|
||
000000000000000000000000000000000000000000000000,
|
||
100000000000100000000000000000000000000000000000,
|
||
100000000000100000000000000000000000000000000000,
|
||
100000000000100000000000500000000000000000000000,
|
||
000000000000000000000000000000000800000000000000,
|
||
000000000000100000000000000000000000000000000000,
|
||
100000000000100000000000000000000000000000000000,
|
||
300000000000300000000000300000000000000000600000,
|
||
000000000000000000000000000000000000000800000000,
|
||
|
||
#GOGOEND
|
||
|
||
|
||
#END
|
||
|