521 lines
12 KiB
Plaintext
521 lines
12 KiB
Plaintext
//TJADB Project
|
|
TITLE:Chengyao
|
|
TITLEZH:撐腰
|
|
SUBTITLE:--Show Lo
|
|
BPM:134.26
|
|
WAVE:Chengyao.ogg
|
|
OFFSET:-1.882
|
|
DEMOSTART:46.648
|
|
|
|
COURSE:Oni
|
|
LEVEL:7
|
|
BALLOON:60
|
|
SCOREINIT:660
|
|
SCOREDIFF:170
|
|
|
|
|
|
#START
|
|
|
|
|
|
000000000000000000000000000000000000000000000000,
|
|
#BPMCHANGE 134.42
|
|
100000100000200000100000200000000000100000200000,
|
|
#BPMCHANGE 134
|
|
000000200000100000000000100000000000200000000000,
|
|
300000000000000000400000000000000000000000300000,
|
|
#BPMCHANGE 134.47
|
|
000000100000200000200000100100100000200000000000,
|
|
#BPMCHANGE 133.47
|
|
100000100000200000100000200000000000100000200000,
|
|
#BPMCHANGE 134.58
|
|
000000200000100000100000100000000000200000000000,
|
|
#BPMCHANGE 132.68
|
|
300000000000000000200200200200200000000000300000,
|
|
#BPMCHANGE 134
|
|
000000100000200000200000100100100000200000000000,
|
|
100000000000200000100100200000100000200100000000,
|
|
100000100000200000100100200000100000200100000000,
|
|
100000000000200000100100200000100000200100100000,
|
|
000000100100200000100000200000100000200100000000,
|
|
100000000000200000100100200000100000200100000000,
|
|
100000100000200000100100200000100000200100000000,
|
|
100000000000200000100100200000100000200100100000,
|
|
000000100100200000100000200000100000200100000000,
|
|
7,
|
|
,
|
|
,
|
|
08,
|
|
100000000000200000100100000100100000200100000000,
|
|
100000000000200000100100000100100000200100000000,
|
|
100000000000200000100100000100100000200100000000,
|
|
200000200000200000100200100100100000200000000000,
|
|
100000000000200000100100200000100000200100000000,
|
|
100000100000200000100100200000100000200100000000,
|
|
100000000000200000100100200000100000200100100000,
|
|
000000100100200000100000200000100000200100000000,
|
|
100000000000200000100000200000100000200100100000,
|
|
100000000000200000100000200000100000200100000000,
|
|
100000000000200000100000200000100000200100100000,
|
|
000000100100200000100000200000100000200100000000,
|
|
100000000000200000100000200000100000200100100000,
|
|
100000000000200000100000200000100000200100000000,
|
|
100000200000200000100000200000100000200100000000,
|
|
100000200000200000100000200000100000200000000000,
|
|
500000000000000000000000000000000008000000000000,
|
|
100000000000200000100000200000100100200100000000,
|
|
500000000000000000000000000000000008000000000000,
|
|
100000000000200000100000200000100100200100000000,
|
|
200000200000200000100100200100000100200100200000,
|
|
100000100000100000100100200100000100200100200000,
|
|
100000200000100100200000100000200000100100200000,
|
|
500000000000000000000008000000000000400000000000,
|
|
|
|
#GOGOSTART
|
|
100000100000200000100100200000100000200100100000,
|
|
100000100000200000100100200000100000200100000000,
|
|
100000000000200000100100200000100000200100100000,
|
|
000000100100200000100000200000100000200100000000,
|
|
200000000000000000200000200000200200200000200000,
|
|
000000200000000000200000200000200000200200200000,
|
|
100000000000200000000100200000100000200100100000,
|
|
000000100100200000100000200000100000200100000000,
|
|
100000100000200000100100200000100000200100100000,
|
|
100000100000200000100100200000100000200100000000,
|
|
100000000000200000100100200000100000200100100000,
|
|
000000100100200000100000200000100000200100000000,
|
|
100000100000200000100100200000100000200100100000,
|
|
100000100000200000100100200000100000200100000000,
|
|
300000000000200000300000000000000000000000300000,
|
|
|
|
#GOGOEND
|
|
|
|
|
|
#END
|
|
|
|
|
|
COURSE:Hard
|
|
LEVEL:5
|
|
BALLOON:45,45,45
|
|
|
|
|
|
#START
|
|
|
|
|
|
,
|
|
#BPMCHANGE 134.42
|
|
11202011,
|
|
#BPMCHANGE 134
|
|
01101020,
|
|
30022203,
|
|
#BPMCHANGE 134.47
|
|
01221020,
|
|
#BPMCHANGE 133.47
|
|
11202011,
|
|
#BPMCHANGE 134.58
|
|
01111020,
|
|
#BPMCHANGE 132.68
|
|
30022203,
|
|
#BPMCHANGE 134
|
|
01221020,
|
|
|
|
#SECTION
|
|
#BRANCHSTART p,75,90
|
|
#N
|
|
10211011,
|
|
01201020,
|
|
10210011,
|
|
01201020,
|
|
10211011,
|
|
01201020,
|
|
10210011,
|
|
01201020,
|
|
7,
|
|
,
|
|
,
|
|
08,
|
|
|
|
#E
|
|
10211011,
|
|
01201020,
|
|
10210111,
|
|
01201020,
|
|
10211011,
|
|
01201020,
|
|
10210111,
|
|
01201020,
|
|
7,
|
|
,
|
|
,
|
|
08,
|
|
|
|
#M
|
|
10211011,
|
|
01211020,
|
|
1000201000101110,
|
|
01211020,
|
|
10211011,
|
|
01211020,
|
|
1000201000101110,
|
|
01211020,
|
|
7,
|
|
,
|
|
,
|
|
08,
|
|
|
|
#SECTION
|
|
#BRANCHSTART p,75,90
|
|
#N
|
|
10210110,
|
|
10210000,
|
|
10210110,
|
|
22201020,
|
|
|
|
#E
|
|
10210110,
|
|
10210110,
|
|
10210110,
|
|
22201020,
|
|
|
|
#M
|
|
1000201000101100,
|
|
1000201000101100,
|
|
1000201000101100,
|
|
22211020,
|
|
|
|
#SECTION
|
|
#BRANCHSTART p,75,90
|
|
#N
|
|
10211011,
|
|
01201020,
|
|
10210011,
|
|
01201020,
|
|
|
|
#E
|
|
10211011,
|
|
01201020,
|
|
10210111,
|
|
01201020,
|
|
|
|
#M
|
|
10211011,
|
|
01211020,
|
|
1000201000101110,
|
|
01211020,
|
|
|
|
#SECTION
|
|
#BRANCHSTART p,75,90
|
|
#N
|
|
1212,
|
|
01201020,
|
|
1212,
|
|
01201020,
|
|
1212,
|
|
01201020,
|
|
11201120,
|
|
1212,
|
|
|
|
#E
|
|
10201021,
|
|
01201120,
|
|
10201021,
|
|
01201120,
|
|
10201021,
|
|
01201120,
|
|
11201120,
|
|
11201020,
|
|
|
|
#M
|
|
10201121,
|
|
01201120,
|
|
10201121,
|
|
01201120,
|
|
10201121,
|
|
01201120,
|
|
11201120,
|
|
11201020,
|
|
|
|
#SECTION
|
|
#BRANCHSTART p,75,90
|
|
#N
|
|
500000000000000000000000000000000008000000000000,
|
|
10201110,
|
|
500000000000000000000000000000000008000000000000,
|
|
10201110,
|
|
22201010,
|
|
11102020,
|
|
11102220,
|
|
500000000000000000000008000000000000400000000000,
|
|
|
|
#E
|
|
500000000000000000000000000000000008000000000000,
|
|
10201110,
|
|
500000000000000000000000000000000008000000000000,
|
|
10201110,
|
|
22201110,
|
|
11102220,
|
|
11102220,
|
|
500000000000000000000008000000000000400000000000,
|
|
|
|
#M
|
|
500000000000000000000000000000000008000000000000,
|
|
1000200010101100,
|
|
500000000000000000000000000000000008000000000000,
|
|
1000200010101100,
|
|
2020200010111000,
|
|
1010100020222000,
|
|
1011100020222000,
|
|
500000000000000000000008000000000000400000000000,
|
|
|
|
#GOGOSTART
|
|
#SECTION
|
|
#BRANCHSTART p,75,90
|
|
#N
|
|
10211011,
|
|
01201020,
|
|
10210011,
|
|
01201020,
|
|
|
|
#E
|
|
11212011,
|
|
01201020,
|
|
10210111,
|
|
01201020,
|
|
|
|
#M
|
|
1010201020001110,
|
|
01211020,
|
|
1000201000101110,
|
|
01211020,
|
|
|
|
#SECTION
|
|
#BRANCHSTART p,75,90
|
|
#N
|
|
10200220,
|
|
00200220,
|
|
10210011,
|
|
01201020,
|
|
|
|
#E
|
|
10200220,
|
|
00200220,
|
|
10210111,
|
|
01201020,
|
|
|
|
#M
|
|
10200220,
|
|
00200220,
|
|
1000201000101110,
|
|
01211020,
|
|
|
|
#SECTION
|
|
#BRANCHSTART p,75,90
|
|
#N
|
|
10211011,
|
|
01201020,
|
|
10210011,
|
|
01201020,
|
|
|
|
#E
|
|
11212011,
|
|
01201020,
|
|
10210111,
|
|
01201020,
|
|
|
|
#M
|
|
1010201020001110,
|
|
01211020,
|
|
1000201000101110,
|
|
01211020,
|
|
|
|
#SECTION
|
|
#BRANCHSTART p,75,90
|
|
#N
|
|
10211011,
|
|
01201020,
|
|
30030003,
|
|
|
|
#E
|
|
11212011,
|
|
01201020,
|
|
30030003,
|
|
|
|
#M
|
|
1010201020001110,
|
|
01211020,
|
|
30030003,
|
|
|
|
#BRANCHEND
|
|
#GOGOEND
|
|
|
|
|
|
#END
|
|
|
|
|
|
COURSE:Normal
|
|
LEVEL:4
|
|
SCOREINIT:1230
|
|
SCOREDIFF:360
|
|
|
|
|
|
#START
|
|
|
|
|
|
000000000000000000000000000000000000000000000000,
|
|
#BPMCHANGE 134.42
|
|
100000000000100000000000100000000000000000100000,
|
|
#BPMCHANGE 134
|
|
000000000000100000000000100000000000000000000000,
|
|
100000000000000000200000000000000000000000100000,
|
|
#BPMCHANGE 134.47
|
|
000000000000000000000000000000000000000000000000,
|
|
#BPMCHANGE 133.47
|
|
100000000000100000000000100000000000000000100000,
|
|
#BPMCHANGE 134.58
|
|
000000000000100000000000100000000000000000000000,
|
|
#BPMCHANGE 132.68
|
|
100000000000000000200000000000000000000000100000,
|
|
#BPMCHANGE 134
|
|
000000000000000000000000000000000000000000000000,
|
|
100000000000100000000000100000000000000000100000,
|
|
000000000000100000000000100000000000000000000000,
|
|
100000000000000000200000000000000000000000100000,
|
|
000000000000000000000000000000000000000000000000,
|
|
100000000000100000000000100000000000000000100000,
|
|
000000000000100000000000100000000000000000000000,
|
|
100000000000000000200000000000000000000000100000,
|
|
000000000000000000000000000000000000000000000000,
|
|
500000000000000000000000000000000000000000000000,
|
|
000000000000000000000080000000000000000000000000,
|
|
500000000000000000000000000000000000000000000000,
|
|
000000000000000000000080000000000000000000000000,
|
|
100000000000000000100000000000000000000000000000,
|
|
100000000000000000100000000000000000000000000000,
|
|
100000000000000000100000000000000000000000000000,
|
|
100000000000000000000000000000000000000000000000,
|
|
100000000000100000000000100000000000000000100000,
|
|
000000000000100000000000100000000000000000000000,
|
|
100000000000000000200000000000000000000000100000,
|
|
000000000000000000000000000000000000000000000000,
|
|
100000000000100000000000100000000000000000100000,
|
|
000000000000100000000000100000000000000000000000,
|
|
100000000000100000000000100000000000000000100000,
|
|
000000000000100000000000100000000000000000000000,
|
|
100000000000100000000000100000000000000000100000,
|
|
000000000000100000000000100000000000000000000000,
|
|
100000000000000000000000100000000000000000000000,
|
|
100000000000000000000000100000000000000000000000,
|
|
500000000000000000000000000080000000000000000000,
|
|
100000000000100000000000200000000000000000000000,
|
|
500000000000000000000000000080000000000000000000,
|
|
100000000000100000000000200000000000000000000000,
|
|
200000200000200000000000000000000000000000000000,
|
|
100000100000100000000000000000000000000000000000,
|
|
100000100000100000000000200000200000200000000000,
|
|
500000000000000000000080000000000000000000000000,
|
|
|
|
#GOGOSTART
|
|
100000100000100000000000100000000000000000100000,
|
|
000000100000100000000000100000000000000000000000,
|
|
100000000000000000200000000000000000000000100000,
|
|
000000000000000000000000000000000000000000000000,
|
|
100000100000100000000000100000000000000000100000,
|
|
000000100000100000000000100000000000000000000000,
|
|
100000000000000000200000000000000000000000100000,
|
|
000000000000000000000000000000000000000000000000,
|
|
100000100000100000000000100000000000000000100000,
|
|
000000100000100000000000100000000000000000000000,
|
|
100000000000000000200000000000000000000000100000,
|
|
000000000000000000000000000000000000000000000000,
|
|
100000100000100000000000100000000000000000100000,
|
|
000000100000100000000000100000000000000000000000,
|
|
300000000000000000300000000000000000000000300000,
|
|
|
|
#GOGOEND
|
|
|
|
|
|
#END
|
|
|
|
|
|
COURSE:Easy
|
|
LEVEL:4
|
|
|
|
|
|
#START
|
|
|
|
|
|
000000000000000000000000000000000000000000000000,
|
|
#BPMCHANGE 134.42
|
|
100000000000000000000000100000000000000000000000,
|
|
#BPMCHANGE 134
|
|
100000000000100000000000100000000000000000000000,
|
|
100000000000000000000000000000000000000000300000,
|
|
#BPMCHANGE 134.47
|
|
000000000000000000000000000000000000000000000000,
|
|
#BPMCHANGE 133.47
|
|
100000000000000000000000100000000000000000000000,
|
|
#BPMCHANGE 134.58
|
|
100000000000100000000000100000000000000000000000,
|
|
#BPMCHANGE 132.68
|
|
100000000000000000000000000000000000000000300000,
|
|
#BPMCHANGE 134
|
|
000000000000000000000000000000000000000000000000,
|
|
100000000000000000000000100000000000000000000000,
|
|
100000000000100000000000100000000000000000000000,
|
|
100000000000000000000000000000000000000000300000,
|
|
000000000000000000000000000000000000000000000000,
|
|
100000000000000000000000100000000000000000000000,
|
|
100000000000100000000000100000000000000000000000,
|
|
100000000000000000000000000000000000000000300000,
|
|
000000000000000000000000000000000000000000000000,
|
|
500000000000000000000000000000000000000000000000,
|
|
000000000000000000000080000000000000000000000000,
|
|
500000000000000000000000000000000000000000000000,
|
|
000000000000000000000080000000000000000000000000,
|
|
100000000000000000000000100000000000000000000000,
|
|
200000000000000000000000000000000000000000000000,
|
|
100000000000000000000000100000000000000000000000,
|
|
200000000000000000000000000000000000000000000000,
|
|
100000000000000000000000100000000000000000000000,
|
|
100000000000100000000000100000000000000000000000,
|
|
100000000000000000000000000000000000000000300000,
|
|
000000000000000000000000000000000000000000000000,
|
|
100000000000000000000000100000000000000000000000,
|
|
100000000000100000000000100000000000000000000000,
|
|
100000000000000000000000100000000000000000000000,
|
|
100000000000000000000000000000000000000000000000,
|
|
100000000000000000000000100000000000000000000000,
|
|
100000000000100000000000100000000000000000000000,
|
|
100000000000000000000000100000000000000000000000,
|
|
200000000000000000000000000000000000000000000000,
|
|
500000000000000000000000000080000000000000000000,
|
|
100000000000000000000000200000000000000000000000,
|
|
500000000000000000000000000080000000000000000000,
|
|
100000000000000000000000000000000000000000000000,
|
|
200000000000200000000000000000000000000000000000,
|
|
100000000000100000000000000000000000000000000000,
|
|
000000000000100000000000000000000000200000000000,
|
|
500000000000000000000080000000000000000000000000,
|
|
|
|
#GOGOSTART
|
|
100000000000100000000000100000000000000000000000,
|
|
100000000000100000000000100000000000000000000000,
|
|
100000000000000000000000000000000000000000300000,
|
|
000000000000000000000000000000000000000000000000,
|
|
100000000000100000000000100000000000000000000000,
|
|
100000000000100000000000100000000000000000000000,
|
|
100000000000000000000000000000000000000000300000,
|
|
000000000000000000000000000000000000000000000000,
|
|
100000000000100000000000100000000000000000000000,
|
|
100000000000100000000000100000000000000000000000,
|
|
100000000000000000000000000000000000000000300000,
|
|
000000000000000000000000000000000000000000000000,
|
|
100000000000100000000000100000000000000000000000,
|
|
100000000000100000000000100000000000000000000000,
|
|
300000000000000000000000000000000000000000300000,
|
|
|
|
#GOGOEND
|
|
|
|
|
|
#END
|
|
|