273 lines
9.9 KiB
Plaintext
273 lines
9.9 KiB
Plaintext
//TJADB Project
|
|
TITLE:Choo Choo TRAIN -Short Version-
|
|
TITLEJA:Choo Choo TRAIN -Short Version-
|
|
SUBTITLE:--EXILE
|
|
BPM:115
|
|
WAVE:Choo Choo TRAIN -Short Version-.ogg
|
|
OFFSET:-4.176
|
|
DEMOSTART:79.306
|
|
|
|
COURSE:Oni
|
|
LEVEL:4
|
|
BALLOON:5,5,5,5,5,5,5,5
|
|
SCOREINIT:780
|
|
SCOREDIFF:170
|
|
|
|
|
|
#START
|
|
|
|
|
|
100000100000200000000100100000100000200000100100,
|
|
100000200000100000200000000000100000100000000000,
|
|
100000100000200000000100100000100000200000100000,
|
|
200000100000200200100000000000200000200000000000,
|
|
100000100000200000000100100000100000200000100100,
|
|
100000200000100000200000000000100000100000000000,
|
|
100000100000200000000100100000200000100000200000,
|
|
000000004000000040000000400000004000000040000000,
|
|
|
|
#GOGOSTART
|
|
300000000000300000000000300000200200200000100000,
|
|
700000000000800000700000000000800000000000000000,
|
|
100000000000200000100000100000100100200000100000,
|
|
000000100100200000100000000000300000000000000000,
|
|
300000000000300000000000300000200200200000100000,
|
|
700000000000800000700000000000800000000000000000,
|
|
100000000000200000100000000000200200200000100000,
|
|
100000000000200000100000000000200200200000100000,
|
|
100100000000400000100100000000400000400000000000,
|
|
100100000000400000100100000000400000400000000000,
|
|
|
|
#GOGOEND
|
|
100000100000200000100100000000100000200000100000,
|
|
100000100000200000100100000000100000200000000000,
|
|
100000100000200000000100100000100000200000100000,
|
|
000000100000200000000000100000100000200000000000,
|
|
100000100000200000000100100000100000200000100000,
|
|
000000100000200000000100100000100000200000000000,
|
|
100000100000200000000100100000100000200000100000,
|
|
000000100000200000000100100000100000200000300000,
|
|
000000300000000000600000000000000000000000000000,
|
|
000000008000000000000000100100100000200000100000,
|
|
000000100000000000100100100000200000100000200000,
|
|
000000200000100000100000100100100000200000100000,
|
|
000000100000000000100100100000200000100000200000,
|
|
000000200000100000100000100100100000200000100000,
|
|
000000200200100000100000200200100000100000200200,
|
|
000000200200100000100000200200100000100000200200,
|
|
000000100000200200100000000000100000200200100000,
|
|
000000400000400000000000400000400000000000400000,
|
|
|
|
#GOGOSTART
|
|
300000000000300000000000300000200200100000200000,
|
|
700000000000800000700000000000800000000000000000,
|
|
100000000000200000100000100000100100200000100000,
|
|
000000100100200000100000000000300000000000000000,
|
|
300000000000300000000000300000200200100000200000,
|
|
700000000000800000700000000000800000000000000000,
|
|
100000000000200000100000000000200200200000100000,
|
|
100000000000200000100000000000200200200000100000,
|
|
100100000000400000100100000000400000400000000000,
|
|
100100000000400000100100000000400000400000000000,
|
|
|
|
#GOGOEND
|
|
|
|
|
|
#END
|
|
|
|
|
|
COURSE:Hard
|
|
LEVEL:4
|
|
BALLOON:12,6,6,15
|
|
SCOREINIT:920
|
|
SCOREDIFF:240
|
|
|
|
|
|
#START
|
|
|
|
|
|
100000000000200000100000100000000000200000000000,
|
|
100000200000100000200000000000000000200000000000,
|
|
100000000000200000100000100000000000200000000000,
|
|
200000100000200000100000000000200000200000000000,
|
|
100000000000200000100000100000000000200000000000,
|
|
100000200000100000200000000000000000200000000000,
|
|
100000000000200000100000000000100000200000100000,
|
|
000000004000000040000000400000004000000040000000,
|
|
#GOGOSTART
|
|
300000000000300000000000300000000000100000100000,
|
|
100000000000200000100000000000100000200000000000,
|
|
100000000000200000100000100000000000200000100000,
|
|
000000100000200000100000000000300000000000000000,
|
|
300000000000300000000000300000000000100000100000,
|
|
100000000000200000100000000000100000200000000000,
|
|
100000000000200000100000000000100000200000100000,
|
|
100000000000200000100000000000100000000000700000,
|
|
000000000000000000000000000000000000000000000800,
|
|
000000000000000000000000000000000000000000000000,
|
|
#GOGOEND
|
|
100000100000200000000000100000000000200000000000,
|
|
100000100000200000000000100000000000000000000000,
|
|
100000100000200000000000100000100000200000100000,
|
|
000000100000200000000000100000100000200000000000,
|
|
100000100000200000000000100000100000200000100000,
|
|
000000100000200000000000100000000000000000000000,
|
|
100000100000200000000000100000100000200000100000,
|
|
000000100000200000000000100000100000200000000000,
|
|
300000000000300000000000600000000000000000000000,
|
|
000000000800000000000000100000100000100000000000,
|
|
100000000000200000000000700000000000000000000000,
|
|
000000000800000000000000100000100000100000000000,
|
|
100000000000200000000000700000000000000000000000,
|
|
000000000800000000000000100000100000100000000000,
|
|
100000200000100000000000200000100000000000000000,
|
|
100000200000100000000000200000100000000000000000,
|
|
100000000000200000100000000000100000200000100000,
|
|
000000400000400000000000400000400000000000400000,
|
|
#GOGOSTART
|
|
300000000000300000000000300000000000200000200000,
|
|
100000000000200000100000000000100000200000000000,
|
|
100000000000200000100000100000000000200000100000,
|
|
000000100000200000100000000000300000000000000000,
|
|
300000000000300000000000300000000000200000200000,
|
|
100000000000200000100000000000100000200000000000,
|
|
100000000000200000100000000000100000200000100000,
|
|
100000000000200000100000000000100000000000700000,
|
|
000000000000000000000000000000000000000000000000,
|
|
000800000000000000000000000000000000000000000000,
|
|
#GOGOEND
|
|
|
|
|
|
#END
|
|
|
|
|
|
COURSE:Normal
|
|
LEVEL:3
|
|
BALLOON:18,4,4,18
|
|
SCOREINIT:1300
|
|
SCOREDIFF:440
|
|
|
|
|
|
#START
|
|
|
|
|
|
100000000000000000000000100000000000000000000000,
|
|
100000000000100000000000000000000000200000000000,
|
|
100000000000000000000000100000000000000000000000,
|
|
100000000000100000000000000000000000200000000000,
|
|
100000000000000000000000100000000000000000000000,
|
|
100000000000100000000000000000000000200000000000,
|
|
100000000000000000000000200000000000000000000000,
|
|
500000000000000000000000000000000800000000000000,
|
|
#GOGOSTART
|
|
300000000000300000000000300000000000400000000000,
|
|
600000000000000000000000000000000800000000000000,
|
|
100000000000100000000000100000000000000000000000,
|
|
100000000000100000000000000000300000000000000000,
|
|
300000000000300000000000300000000000400000000000,
|
|
600000000000000000000000000000000800000000000000,
|
|
100000000000100000000000100000000000000000000000,
|
|
200000000000200000000000200000000000000000000000,
|
|
900000000000000000000000000000000000000000000000,
|
|
000000000000000000000000000000000000000000000008,
|
|
#GOGOEND
|
|
000000000000000000000000000000000000000000000000,
|
|
000000000000000000000000000000000000000000000000,
|
|
100000000000000000000000100000000000100000000000,
|
|
100000000000000000000000200000000000000000000000,
|
|
100000000000100000000000100000000000000000000000,
|
|
700000000000000000000000000800000000000000000000,
|
|
100000000000000000000000100000000000100000000000,
|
|
100000000000000000000000200000000000000000000000,
|
|
100000000000100000000000700000000000000000000000,
|
|
000000000800000000000000100000000000100000000000,
|
|
200000000000200000000000200000000000000000000000,
|
|
100000000000000000000000100000000000100000000000,
|
|
200000000000200000000000200000000000000000000000,
|
|
100000000000000000000000200000000000200000000000,
|
|
100000000000100000000000000000000000200000000000,
|
|
100000000000000000000000400000000000400000000000,
|
|
300000000000300000000000000000000000600000000000,
|
|
000000000000000000000000000000000800000000000000,
|
|
#GOGOSTART
|
|
300000000000300000000000300000000000400000000000,
|
|
600000000000000000000000000000000800000000000000,
|
|
100000000000100000000000100000000000000000000000,
|
|
100000000000100000000000000000300000000000000000,
|
|
300000000000300000000000300000000000400000000000,
|
|
600000000000000000000000000000000800000000000000,
|
|
100000000000100000000000100000000000000000000000,
|
|
200000000000200000000000200000000000000000000000,
|
|
900000000000000000000000000000000000000000000000,
|
|
000000000000000000000000000000000000000000000008,
|
|
#GOGOEND
|
|
|
|
|
|
#END
|
|
|
|
|
|
COURSE:Easy
|
|
LEVEL:2
|
|
BALLOON:15,15
|
|
SCOREINIT:1100
|
|
SCOREDIFF:450
|
|
|
|
|
|
#START
|
|
|
|
|
|
100000000000000000000000100000000000000000000000,
|
|
100000000000000000000000000000000000000000000000,
|
|
100000000000000000000000100000000000000000000000,
|
|
100000000000000000000000000000000000000000000000,
|
|
200000000000000000000000200000000000000000000000,
|
|
200000000000000000000000000000000000000000000000,
|
|
200000000000000000000000200000000000000000000000,
|
|
500000000000000000000000000000000800000000000000,
|
|
#GOGOSTART
|
|
300000000000300000000000300000000000000000000000,
|
|
600000000000000000000000000000000800000000000000,
|
|
100000000000100000000000100000000000000000000000,
|
|
100000000000000000000000100000000000000000000000,
|
|
300000000000300000000000300000000000000000000000,
|
|
600000000000000000000000000000000800000000000000,
|
|
100000000000100000000000100000000000000000000000,
|
|
200000000000200000000000200000000000000000000000,
|
|
900000000000000000000000000000000000000000000000,
|
|
000000000000000000000000000000000000000000000008,
|
|
#GOGOEND
|
|
000000000000000000000000000000000000000000000000,
|
|
000000000000000000000000000000000000000000000000,
|
|
100000000000000000000000100000000000000000000000,
|
|
100000000000000000000000000000000000000000000000,
|
|
100000000000000000000000100000000000100000000000,
|
|
500000000000000000000000000800000000000000000000,
|
|
200000000000000000000000200000000000000000000000,
|
|
200000000000000000000000000000000000000000000000,
|
|
200000000000200000000000500000000000000000000000,
|
|
800000000000000000000000100000000000100000000000,
|
|
100000000000000000000000100000000000000000000000,
|
|
000000000000000000000000100000000000100000000000,
|
|
100000000000000000000000100000000000000000000000,
|
|
000000000000000000000000100000000000100000000000,
|
|
100000000000000000000000200000000000000000000000,
|
|
000000000000000000000000100000000000100000000000,
|
|
100000000000000000000000300000000000600000000000,
|
|
000000000000000000000000000000000800000000000000,
|
|
#GOGOSTART
|
|
300000000000300000000000300000000000000000000000,
|
|
600000000000000000000000000000000800000000000000,
|
|
100000000000100000000000100000000000000000000000,
|
|
200000000000000000000000200000000000000000000000,
|
|
300000000000300000000000300000000000000000000000,
|
|
600000000000000000000000000000000800000000000000,
|
|
100000000000100000000000100000000000000000000000,
|
|
200000000000200000000000200000000000000000000000,
|
|
900000000000000000000000000000000000000000000000,
|
|
000000000000000000000000000000000000000000000008,
|
|
#GOGOEND
|
|
|
|
|
|
#END
|
|
|