509 lines
15 KiB
Plaintext
509 lines
15 KiB
Plaintext
//TJADB Project
|
||
TITLE:Taikibansei
|
||
TITLEJA:大器晩成
|
||
SUBTITLE:--Angerme/Mecha×2 Iketeru!
|
||
SUBTITLEJA:アンジュルム
|
||
BPM:146.97
|
||
WAVE:Taikibansei.ogg
|
||
OFFSET:-3.235
|
||
DEMOSTART:69.579
|
||
|
||
COURSE:Oni
|
||
LEVEL:7
|
||
SCOREINIT:620
|
||
SCOREDIFF:150
|
||
|
||
|
||
#START
|
||
|
||
|
||
100100100100100000000000000000000000000000000000,
|
||
|
||
#GOGOSTART
|
||
#BPMCHANGE 146.29
|
||
300000000000200000200200000000200000100000200000,
|
||
000000200000100200000000100000200000100100100000,
|
||
100000000000200000200200000000200000100000200000,
|
||
000000200000100200000000100000200000200200200000,
|
||
#BPMCHANGE 147.26
|
||
#SCROLL 0.99
|
||
100000000000200000200200000000200000100000200000,
|
||
#BPMCHANGE 144.5
|
||
#SCROLL 1.01
|
||
000000200000100200000000100000200000000000300000,
|
||
#BPMCHANGE 146.87
|
||
#SCROLL 1
|
||
000000400000300000400000300000400000300000400000,
|
||
#BPMCHANGE 145.83
|
||
100100100000000000100100100000200000100000000000,
|
||
300000000000200000200200000000200000100000200000,
|
||
#BPMCHANGE 145.66
|
||
000000200000100200000000100000200000200200100000,
|
||
200000000000200000200200000000200000100000200000,
|
||
000000200000100200000000100000200000200200100000,
|
||
200000000000200000200200000000200000100000200000,
|
||
#BPMCHANGE 146.58
|
||
000000200000100200000000100000200000000000300000,
|
||
000000400000300000400000300000400000300000400000,
|
||
#BPMCHANGE 147.99
|
||
#SCROLL 0.99
|
||
100100200000000000100100100000200200200000100000,
|
||
|
||
#GOGOEND
|
||
#BPMCHANGE 142.96
|
||
#SCROLL 1.02
|
||
000000100000200000000000100100100000200000100000,
|
||
#BPMCHANGE 146
|
||
#SCROLL 1
|
||
000000100000200000000000100100200000200000100000,
|
||
000000100000200000000000200000100000000000100000,
|
||
000000200000200000000000200200200200200000100000,
|
||
#BPMCHANGE 146.41
|
||
000000100000200000000000100100100000200000100000,
|
||
000000100000200000000000100100200000200000100000,
|
||
#BPMCHANGE 145.59
|
||
000000100000200000000000200000100000000000100000,
|
||
000000200000200000000000200000100000100000200000,
|
||
#BPMCHANGE 146
|
||
000000200000100000100100100000100000200000000000,
|
||
#BPMCHANGE 147.03
|
||
#SCROLL 0.99
|
||
100000100000200000100000000000100000100000200000,
|
||
000000100000200000200200100000100000200000000000,
|
||
#BPMCHANGE 143.98
|
||
#SCROLL 1.02
|
||
100000200000100000200000000000100000100000200000,
|
||
#BPMCHANGE 146.5
|
||
#SCROLL 1
|
||
000000200000100000100100100000100000200000000000,
|
||
100000100000200000100000000000100000100000200000,
|
||
100100100000200000200000100100100000200000500000,
|
||
000008000000000000000000000000100000200000100000,
|
||
#BPMCHANGE 145.56
|
||
000000100000200000100100100000100000200000200200,
|
||
100000100000200000100000000000100000200000100000,
|
||
000000200000100000200200100000100000200000200200,
|
||
#BPMCHANGE 145.85
|
||
100000200000100000200000000000100000200000100000,
|
||
000000200000100000100100100000100000200000200200,
|
||
100000100000200000100000000000100000200000100000,
|
||
#BPMCHANGE 146
|
||
100100100000200000200000100100100000200000200000,
|
||
#BPMCHANGE 148.95
|
||
#SCROLL 0.98
|
||
100100100100100000000000000000000000000000000000,
|
||
|
||
#GOGOSTART
|
||
#BPMCHANGE 143.24
|
||
#SCROLL 1.02
|
||
300000000000200000100200000000200000100000200000,
|
||
#BPMCHANGE 146
|
||
#SCROLL 1
|
||
000000200000100200000000100000200000100100100000,
|
||
100000000000200000100200000000200000100000200000,
|
||
000000200000100200000000100000200000200200200000,
|
||
100000000000200000100200000000200000100000200000,
|
||
#BPMCHANGE 145.6
|
||
000000200000100200000000100000200000000000300000,
|
||
000000400000300000400000300000400000300000400000,
|
||
#BPMCHANGE 146.41
|
||
100100100000000000100100100000200000100000000000,
|
||
300000000000200000100200000000200000100000200000,
|
||
#BPMCHANGE 145.69
|
||
000000200000100200000000100000200000200200100000,
|
||
200000000000200000100200000000200000100000200000,
|
||
000000200000100200000000100000200000200200100000,
|
||
#BPMCHANGE 146.47
|
||
200000000000200000100200000000200000100000200000,
|
||
000000200000100200000000100000200000000000300000,
|
||
#BPMCHANGE 146.88
|
||
000000400000300000400000300000400000300000400000,
|
||
100100200000000000400000000000000000000000000100,
|
||
|
||
#GOGOEND
|
||
#BPMCHANGE 143.93
|
||
#SCROLL 1.02
|
||
000200200200200200200100000200200200200200200100,
|
||
#BPMCHANGE 145.51
|
||
#SCROLL 1
|
||
000200200200200200200200100000000300000000300000,
|
||
|
||
|
||
#END
|
||
|
||
|
||
COURSE:Hard
|
||
LEVEL:5
|
||
BALLOON:16,16,16
|
||
SCOREINIT:630
|
||
SCOREDIFF:160
|
||
|
||
|
||
#START
|
||
|
||
|
||
000000000000000000100000000000200000100000000000,
|
||
|
||
#GOGOSTART
|
||
#BPMCHANGE 146.29
|
||
100000000000200000200200000000000000200000200000,
|
||
000000000000200000100000000000100000200000000000,
|
||
100000000000200000200200000000000000200000200000,
|
||
000000000000200000100000000000100000200000000000,
|
||
#BPMCHANGE 147.26
|
||
#SCROLL 0.99
|
||
100000000000200000200200000000000000200000200000,
|
||
#BPMCHANGE 144.5
|
||
#SCROLL 1.01
|
||
000000000000200000100100100000200000000000300000,
|
||
#BPMCHANGE 146.87
|
||
#SCROLL 1
|
||
000000400000300000400000300000400000300000400000,
|
||
#BPMCHANGE 145.83
|
||
300000300000000000100000000000200000100000000000,
|
||
200000000000200000200200000000000000100000200000,
|
||
#BPMCHANGE 145.66
|
||
000000000000200000100000000000200000100000000000,
|
||
200000000000200000200200000000000000100000200000,
|
||
000000000000200000100000000000200000100000000000,
|
||
200000000000200000200200000000000000100000200000,
|
||
#BPMCHANGE 146.58
|
||
000000000000200000100100100000200000000000300000,
|
||
000000400000300000400000300000400000300000400000,
|
||
#BPMCHANGE 147.99
|
||
#SCROLL 0.99
|
||
300000300000000000000000000000000000000000100000,
|
||
|
||
#GOGOEND
|
||
#BPMCHANGE 142.96
|
||
#SCROLL 1.02
|
||
000000200000200000000000100000100000200000200000,
|
||
#BPMCHANGE 146
|
||
#SCROLL 1
|
||
000000200000200000000000100000000000200000200000,
|
||
000000200000700000000000000000000000000000000000,
|
||
000000000000000000000000800000000000000000100000,
|
||
#BPMCHANGE 146.41
|
||
000000200000200000000000100000100000200000200000,
|
||
000000200000200000000000100000000000200000200000,
|
||
#BPMCHANGE 145.59
|
||
000000200000700000000000000000000000000000000000,
|
||
000000000000000000000000800000100000100000100000,
|
||
#BPMCHANGE 146
|
||
000000200000200000000000100000000000200000000000,
|
||
#BPMCHANGE 147.03
|
||
#SCROLL 0.99
|
||
100000000000200000200000000000100000100000100000,
|
||
000000200000200000000000100000000000200000000000,
|
||
#BPMCHANGE 143.98
|
||
#SCROLL 1.02
|
||
100000000000200000200000000000100000100000100000,
|
||
#BPMCHANGE 146.5
|
||
#SCROLL 1
|
||
000000200000200000000000100000000000200000000000,
|
||
100000000000200000200000000000200000000000200000,
|
||
500000000000000000000000000000000000000000000000,
|
||
000008000000000000000000000000100000100000100000,
|
||
#BPMCHANGE 145.56
|
||
000000100000200000000000100000100000200000000000,
|
||
100000000000100000200000000000100000100000100000,
|
||
000000100000200000000000100000100000200000000000,
|
||
#BPMCHANGE 145.85
|
||
100000000000100000200000000000100000100000100000,
|
||
000000100000200000000000100000100000200000000000,
|
||
100000000000100000200000000000200000000000200000,
|
||
#BPMCHANGE 146
|
||
700000000000000000000000000000000000000000000000,
|
||
#BPMCHANGE 148.95
|
||
#SCROLL 0.98
|
||
000000000000800000100000000000100000200000000000,
|
||
|
||
#GOGOSTART
|
||
#BPMCHANGE 143.24
|
||
#SCROLL 1.02
|
||
100000000000200000200200000000200000100000200000,
|
||
#BPMCHANGE 146
|
||
#SCROLL 1
|
||
000000000000200000100000000000100000200000000000,
|
||
100000000000200000200200000000200000100000200000,
|
||
000000000000200000100000000000100000200000000000,
|
||
100000000000200000200200000000200000100000200000,
|
||
#BPMCHANGE 145.6
|
||
000000000000200000100100100000200000000000300000,
|
||
000000400000300000400000300000400000300000400000,
|
||
#BPMCHANGE 146.41
|
||
300000300000000000100000000000100000200000000000,
|
||
200000000000200000200200000000200000100000200000,
|
||
#BPMCHANGE 145.69
|
||
000000000000200000100000000000100000200000200000,
|
||
200000000000200000200200000000200000100000200000,
|
||
000000000000200000100000000000100000200000200000,
|
||
#BPMCHANGE 146.47
|
||
200000000000200000200200000000200000100000200000,
|
||
000000000000200000100100100000200000000000300000,
|
||
#BPMCHANGE 146.88
|
||
000000400000300000400000300000400000300000400000,
|
||
300000300000000000400000000000000000000000000300,
|
||
|
||
#GOGOEND
|
||
#BPMCHANGE 143.93
|
||
#SCROLL 1.02
|
||
000000000000000000000300000000000000000000000300,
|
||
#BPMCHANGE 145.51
|
||
#SCROLL 1
|
||
000000000000000000000000300000000300000000300000,
|
||
|
||
|
||
#END
|
||
|
||
|
||
COURSE:Normal
|
||
LEVEL:4
|
||
BALLOON:13,12,12,12,13
|
||
SCOREINIT:1050
|
||
SCOREDIFF:270
|
||
|
||
|
||
#START
|
||
|
||
|
||
000000000000000000100000000000100000100000000000,
|
||
|
||
#GOGOSTART
|
||
#BPMCHANGE 146.29
|
||
100000000000000000000000000000000000200000200000,
|
||
000000000000000000100000000000100000100000000000,
|
||
100000000000000000000000000000000000200000200000,
|
||
000000000000000000100000100000000000100000000000,
|
||
#BPMCHANGE 147.26
|
||
#SCROLL 0.99
|
||
100000000000000000000000000000000000200000200000,
|
||
#BPMCHANGE 144.5
|
||
#SCROLL 1.01
|
||
000000000000000000100000100000100000000000600000,
|
||
#BPMCHANGE 146.87
|
||
#SCROLL 1
|
||
000000000000000000000000000000000000000000000000,
|
||
#BPMCHANGE 145.83
|
||
000008000000000000100000000000100000100000000000,
|
||
200000000000000000000000000000000000200000200000,
|
||
#BPMCHANGE 145.66
|
||
000000000000000000100000000000100000100000000000,
|
||
200000000000000000000000000000000000200000200000,
|
||
000000000000000000100000100000000000100000000000,
|
||
200000000000000000000000000000000000200000200000,
|
||
#BPMCHANGE 146.58
|
||
000000000000000000100000100000100000000000700000,
|
||
000000000000000000000000000000000000000000000000,
|
||
#BPMCHANGE 147.99
|
||
#SCROLL 0.99
|
||
000000000000800000000000000000000000000000000000,
|
||
|
||
#GOGOEND
|
||
#BPMCHANGE 142.96
|
||
#SCROLL 1.02
|
||
100000000000200000000000100000000000000000000000,
|
||
#BPMCHANGE 146
|
||
#SCROLL 1
|
||
100000000000200000000000100000000000000000000000,
|
||
000000000000700000000000000000000000000000000000,
|
||
000000000000000000000000800000000000000000000000,
|
||
#BPMCHANGE 146.41
|
||
100000000000200000000000100000000000000000000000,
|
||
100000000000200000000000100000000000000000000000,
|
||
#BPMCHANGE 145.59
|
||
000000000000700000000000000000000000000000000000,
|
||
000000000000000000000000800000000000000000000000,
|
||
#BPMCHANGE 146
|
||
100000000000100000000000100000000000100000000000,
|
||
#BPMCHANGE 147.03
|
||
#SCROLL 0.99
|
||
100000000000100000100000000000000000000000000000,
|
||
100000000000100000000000100000000000100000000000,
|
||
#BPMCHANGE 143.98
|
||
#SCROLL 1.02
|
||
100000000000100000100000000000000000000000000000,
|
||
#BPMCHANGE 146.5
|
||
#SCROLL 1
|
||
200000000000200000000000200000000000200000000000,
|
||
200000000000200000200000000000000000000000000000,
|
||
500000000000000000000000000000000000000000000000,
|
||
000008000000000000000000000000000000000000000000,
|
||
#BPMCHANGE 145.56
|
||
100000000000100000000000100000100000100000000000,
|
||
100000000000100000100000000000000000000000000000,
|
||
100000000000100000000000100000100000100000000000,
|
||
#BPMCHANGE 145.85
|
||
100000000000100000100000000000000000000000000000,
|
||
200000000000200000000000200000200000200000000000,
|
||
200000000000200000200000000000000000000000000000,
|
||
#BPMCHANGE 146
|
||
700000000000000000000000000000000000000000000000,
|
||
#BPMCHANGE 148.95
|
||
#SCROLL 0.98
|
||
000000000000800000100000000000100000100000000000,
|
||
|
||
#GOGOSTART
|
||
#BPMCHANGE 143.24
|
||
#SCROLL 1.02
|
||
100000000000000000000000000000000000200000200000,
|
||
#BPMCHANGE 146
|
||
#SCROLL 1
|
||
000000000000000000100000000000100000100000000000,
|
||
100000000000000000000000000000000000200000200000,
|
||
000000000000000000100000100000000000100000000000,
|
||
100000000000000000000000000000000000200000200000,
|
||
#BPMCHANGE 145.6
|
||
000000000000000000100000100000100000000000600000,
|
||
000000000000000000000000000000000000000000000000,
|
||
#BPMCHANGE 146.41
|
||
000008000000000000100000000000100000100000000000,
|
||
200000000000000000000000000000000000200000200000,
|
||
#BPMCHANGE 145.69
|
||
000000000000000000100000000000100000100000000000,
|
||
200000000000000000000000000000000000200000200000,
|
||
000000000000000000100000100000000000100000000000,
|
||
#BPMCHANGE 146.47
|
||
200000000000000000000000000000000000200000200000,
|
||
000000000000000000100000100000100000000000700000,
|
||
#BPMCHANGE 146.88
|
||
000000000000000000000000000000000000000000000000,
|
||
000000000000800000300000000000000000000000000300,
|
||
|
||
#GOGOEND
|
||
#BPMCHANGE 143.93
|
||
#SCROLL 1.02
|
||
000000000000000000000300000000000000000000000300,
|
||
#BPMCHANGE 145.51
|
||
#SCROLL 1
|
||
000000000000000000000000300000000300000000300000,
|
||
|
||
|
||
#END
|
||
|
||
|
||
COURSE:Easy
|
||
LEVEL:3
|
||
BALLOON:8,8,8,8,8
|
||
SCOREINIT:970
|
||
SCOREDIFF:340
|
||
|
||
|
||
#START
|
||
|
||
|
||
000000000000000000000000000000000000000000000000,
|
||
|
||
#GOGOSTART
|
||
#BPMCHANGE 146.29
|
||
100000000000000000000000000000000000300000000000,
|
||
000000000000000000000000100000000000100000000000,
|
||
100000000000000000000000000000000000300000000000,
|
||
000000000000000000000000100000000000100000000000,
|
||
#BPMCHANGE 147.26
|
||
#SCROLL 0.99
|
||
100000000000000000000000000000000000300000000000,
|
||
#BPMCHANGE 144.5
|
||
#SCROLL 1.01
|
||
000000000000000000000000100000000000000000600000,
|
||
#BPMCHANGE 146.87
|
||
#SCROLL 1
|
||
000000000000000000000000000000000000000000000000,
|
||
#BPMCHANGE 145.83
|
||
000008000000000000000000100000000000100000000000,
|
||
100000000000000000000000000000000000400000000000,
|
||
#BPMCHANGE 145.66
|
||
000000000000000000000000100000000000100000000000,
|
||
100000000000000000000000000000000000400000000000,
|
||
000000000000000000000000100000000000100000000000,
|
||
100000000000000000000000000000000000400000000000,
|
||
#BPMCHANGE 146.58
|
||
000000000000000000000000100000000000000000700000,
|
||
000000000000000000000000000000000000000000000000,
|
||
#BPMCHANGE 147.99
|
||
#SCROLL 0.99
|
||
000000000000800000000000000000000000000000000000,
|
||
|
||
#GOGOEND
|
||
#BPMCHANGE 142.96
|
||
#SCROLL 1.02
|
||
100000000000100000000000000000000000000000000000,
|
||
#BPMCHANGE 146
|
||
#SCROLL 1
|
||
100000000000100000000000000000000000000000000000,
|
||
000000000000700000000000000000000000000000000000,
|
||
000000000000000000000000800000000000000000000000,
|
||
#BPMCHANGE 146.41
|
||
200000000000200000000000000000000000000000000000,
|
||
200000000000200000000000000000000000000000000000,
|
||
#BPMCHANGE 145.59
|
||
000000000000700000000000000000000000000000000000,
|
||
000000000000000000000000800000000000000000000000,
|
||
#BPMCHANGE 146
|
||
100000000000000000000000100000000000000000000000,
|
||
#BPMCHANGE 147.03
|
||
#SCROLL 0.99
|
||
100000000000100000000000000000000000000000000000,
|
||
100000000000000000000000100000000000000000000000,
|
||
#BPMCHANGE 143.98
|
||
#SCROLL 1.02
|
||
100000000000100000000000000000000000000000000000,
|
||
#BPMCHANGE 146.5
|
||
#SCROLL 1
|
||
200000000000000000000000200000000000000000000000,
|
||
200000000000200000000000000000000000000000000000,
|
||
500000000000000000000000000000000000000000000000,
|
||
000008000000000000000000000000000000000000000000,
|
||
#BPMCHANGE 145.56
|
||
100000000000100000000000100000000000000000000000,
|
||
100000000000100000000000000000000000000000000000,
|
||
100000000000100000000000100000000000000000000000,
|
||
#BPMCHANGE 145.85
|
||
100000000000100000000000000000000000000000000000,
|
||
200000000000200000000000200000000000000000000000,
|
||
200000000000200000000000000000000000000000000000,
|
||
#BPMCHANGE 146
|
||
700000000000000000000000000000000000000000000000,
|
||
#BPMCHANGE 148.95
|
||
#SCROLL 0.98
|
||
000000000000800000000000000000000000000000000000,
|
||
|
||
#GOGOSTART
|
||
#BPMCHANGE 143.24
|
||
#SCROLL 1.02
|
||
100000000000000000000000000000000000300000000000,
|
||
#BPMCHANGE 146
|
||
#SCROLL 1
|
||
000000000000000000000000100000000000100000000000,
|
||
100000000000000000000000000000000000300000000000,
|
||
000000000000000000000000100000000000100000000000,
|
||
100000000000000000000000000000000000300000000000,
|
||
#BPMCHANGE 145.6
|
||
000000000000000000000000100000000000000000600000,
|
||
000000000000000000000000000000000000000000000000,
|
||
#BPMCHANGE 146.41
|
||
000008000000000000000000100000000000100000000000,
|
||
100000000000000000000000000000000000400000000000,
|
||
#BPMCHANGE 145.69
|
||
000000000000000000000000100000000000100000000000,
|
||
100000000000000000000000000000000000400000000000,
|
||
000000000000000000000000100000000000100000000000,
|
||
#BPMCHANGE 146.47
|
||
100000000000000000000000000000000000400000000000,
|
||
000000000000000000000000100000000000000000700000,
|
||
#BPMCHANGE 146.88
|
||
000000000000000000000000000000000000000000000000,
|
||
000000000000800000300000000000000000000000000300,
|
||
|
||
#GOGOEND
|
||
#BPMCHANGE 143.93
|
||
#SCROLL 1.02
|
||
000000000000000000000300000000000000000000000300,
|
||
#BPMCHANGE 145.51
|
||
#SCROLL 1
|
||
000000000000000000000000600000000000000000000008,
|
||
|
||
|
||
#END
|
||
|