324 lines
13 KiB
Plaintext
324 lines
13 KiB
Plaintext
//TJADB Project
|
|
TITLE:Yo Bailo
|
|
TITLEJA:ジョバイロ
|
|
SUBTITLE:--Porno Graffitti/On the Single Bed Tonight
|
|
BPM:126
|
|
WAVE:Yo Bailo.ogg
|
|
OFFSET:-2.018
|
|
DEMOSTART:86.998
|
|
|
|
COURSE:Oni
|
|
LEVEL:7
|
|
SCOREINIT:700
|
|
SCOREDIFF:110
|
|
|
|
|
|
#START
|
|
|
|
|
|
100000200000100000000000100000000100000000000000,
|
|
100000100000200000000000100000000000100000000000,
|
|
100000200000100000000000100000000100000000000000,
|
|
100000000000000000000000000000100000100000100000,
|
|
200200000200200000200000000000200200100000200000,
|
|
100100000100100000100000000000100000100000100000,
|
|
200200000200200000200000000000200200100000200000,
|
|
100100000100100000100000000000100000100000100000,
|
|
200200000200200000200000000000200200100000200000,
|
|
100100000100100000100000000000100000100000100000,
|
|
200200000200200000200000000000200200100000200000,
|
|
100100000100100000100000000200000200200000200200,
|
|
100000200200100000200000100100200000100000200000,
|
|
100000200200100000200000100100200000100000000000,
|
|
100000200200100000200000100100200000100000200000,
|
|
100000200200100000200000100100200000100000000000,
|
|
100000200200100000200000100100200000100000200000,
|
|
100000200200100000200000100100200000100000000000,
|
|
100000200200100000200000100100200000100100200200,
|
|
100000000100000000100000000000000000100100000000,
|
|
200000000000100000100100200000200200100000200000,
|
|
100000000200000000200000100000100100200000100000,
|
|
100000100100100000100100200000200200100000200000,
|
|
100000000200000000200000100000100100100000000000,
|
|
100000100100200000100100200000100000100000000000,
|
|
100000100100200000100100200000100000100000000000,
|
|
200000200200200000200000100000100100100000100000,
|
|
200000200200200000200000200000000200200000100000,
|
|
200000000000100000100100200000200200100000200000,
|
|
100000000200000000200000100000100100100000000000,
|
|
100000100100100000100100200000200200100000200000,
|
|
100000000200000000200000100000100100100000000000,
|
|
100000100100200000100100200000100000100000000000,
|
|
100000100100200000100100200000100000100000000000,
|
|
200000200200200000200000100000100100100000100000,
|
|
200000200000200100100200100100100000200100100000,
|
|
100000000000100100200000100100200000100100200000,
|
|
100000000000100100200000100100200000100100200000,
|
|
100000000000100200100000100200100000100100200000,
|
|
100000000000100200100000100200100000100100200000,
|
|
100000000000100100200000100100200000100100200000,
|
|
100000000000100100200000100100200000100100200000,
|
|
100000000000100000000000100000000000100000000000,
|
|
100000100100100000100000100000100000100100200000,
|
|
300000300000300000300000300000000000000000000000,
|
|
|
|
#GOGOSTART
|
|
100000200200100000200000100000200200200000200000,
|
|
100000100100200000100000100100200200100000200000,
|
|
100000200200100000200000000000100100100200200000,
|
|
100000200200200000200000000000100100200000200000,
|
|
100000200200100000200000100100100000200200200000,
|
|
100000200200200000200000100000100100200000200000,
|
|
100100200200100100200000000000100100200200200000,
|
|
300000000300000000300000000000100000200200000000,
|
|
100000200200100000200000100100100000200200200000,
|
|
100000200200100000200000100000200200200000200000,
|
|
100100200200100100200000000000100000100000200000,
|
|
300000000300000000400000000000100000100000100000,
|
|
100000200200100000200000100000100100100000100000,
|
|
100000200200100000200000100100100000200200200000,
|
|
200100100200100100200000000000100100200200100000,
|
|
200000100200100000200000100100100100100000000000,
|
|
|
|
#GOGOEND
|
|
|
|
|
|
#END
|
|
|
|
|
|
COURSE:Hard
|
|
LEVEL:5
|
|
BALLOON:6,6,6,6,8
|
|
SCOREINIT:700
|
|
SCOREDIFF:150
|
|
|
|
|
|
#START
|
|
|
|
|
|
100000100000200000000000100000000100000000000000,
|
|
100000100000200000000000100000000000100000000000,
|
|
200000200000200000000000200000000200000000000000,
|
|
200000200000200000000000200000000000000000000000,
|
|
100000000100000000100000000000200000200000000000,
|
|
200000000200000000200000000000100000100000000000,
|
|
100000000100000000100000000000200000200000000000,
|
|
200000000200000000200000000000100000100000000000,
|
|
100000000100000000100000000000200000200000000000,
|
|
200000000200000000200000000000100000100000000000,
|
|
100000000100000000100000000000200000200000000000,
|
|
700000000000000000000000000000000800000000000000,
|
|
100000100100100000200000200000200200200000200000,
|
|
000000100000000000000000000000000000000000000000,
|
|
200000200200200000100000000000100100200000100000,
|
|
000000100000100100200000000000000000000000000000,
|
|
100000100100100000200000200000100100200000100000,
|
|
000000200000000000000000000000000000000000100100,
|
|
200000200000200000100000000000100100200000100000,
|
|
100000000100000000100000000000000000100100000000,
|
|
200000000000100000100100100000100000100000000000,
|
|
100000000100000000100000000000000000000000000000,
|
|
000000000000200000200200200000200000200000000000,
|
|
200000000200000000200000000000100000000000100000,
|
|
100000000100000000200000000000000000000000100000,
|
|
100000000100000000200000000000000000000000000000,
|
|
700000000000000000000000000000000800000000000000,
|
|
700000000000000000000000000000000800000000000000,
|
|
200000000000100000000000100100100000100000000000,
|
|
100000000100000000100000000000000000000000000000,
|
|
000000000000200000000000200200200000200000000000,
|
|
200000000200000000200000000000100000000000100000,
|
|
100000000100000000200000000000000000000000100000,
|
|
100000000100000000200000000000000000000000000000,
|
|
100000100100100000100000200000200200200000200000,
|
|
700000000000000000000000000000000800000000000000,
|
|
000000000000100000100100100000100100100000100000,
|
|
100000000100000000100000000000000000000000000000,
|
|
000000000000200000200200200000200200200000200000,
|
|
200000000200000000200000000000000000000000000000,
|
|
000000000000100000100100100000100100100000100000,
|
|
100000000100000000100000000000200000200000200000,
|
|
100000000000100000000000100000000000100000000000,
|
|
500000000000000000000000000000000800000000000000,
|
|
300000300000300000300000300000000000000000000000,
|
|
|
|
#GOGOSTART
|
|
100000100100200000100000000000200000200000200000,
|
|
100000100100100000100000100000100100100000100000,
|
|
100000000100000000200000000000100000100000100000,
|
|
300000000000000000300000000000200000200000200000,
|
|
100000100100200000100000000000200000200000200000,
|
|
100000100100100000100000100000100100100000100000,
|
|
100000000100000000200000000000100000100000100000,
|
|
300000000000000000300000000000200000200000200000,
|
|
100000100100200000100000000000200000200000200000,
|
|
100000100100100000100000100000200200200000200000,
|
|
100000000100000000200000000000100000100000100000,
|
|
300000000000000000400000000000100000100000100000,
|
|
100000100100100000100000100000200200200000200000,
|
|
100000100100100000100000100000200200200000200000,
|
|
400000000000000000400000000000100000100000000000,
|
|
900000000000000000000000000000000000000000000008,
|
|
|
|
#GOGOEND
|
|
|
|
|
|
#END
|
|
|
|
|
|
COURSE:Normal
|
|
LEVEL:4
|
|
BALLOON:5,5,5,5,7
|
|
SCOREINIT:770
|
|
SCOREDIFF:280
|
|
|
|
|
|
#START
|
|
|
|
|
|
100000000000100000000000100000000000000000000000,
|
|
100000000000100000000000100000000000000000000000,
|
|
200000000000200000000000200000000000000000000000,
|
|
200000000000200000000000200000000000000000000000,
|
|
100000000100000000100000000000000000000000000000,
|
|
200000000200000000200000000000000000000000000000,
|
|
100000000100000000100000000000000000000000000000,
|
|
200000000200000000200000000000000000000000000000,
|
|
100000000100000000100000000000000000000000000000,
|
|
200000000200000000200000000000000000000000000000,
|
|
100000000100000000100000000000000000000000000000,
|
|
700000000000000000000000000800000000000000000000,
|
|
100000000000100000000000200000000000200000000000,
|
|
100000000000000000000000000000000000000000000000,
|
|
100000000000100000000000200000000000200000000000,
|
|
100000000000000000000000000000000000000000000000,
|
|
100000000000100000000000200000000000200000000000,
|
|
100000000000200000000000000000000000000000000000,
|
|
100000000000100000000000100000000000100000000000,
|
|
100000000000000000300000000000000000000000000000,
|
|
100000000000000000000000100000000000000000000000,
|
|
100000000100000000100000000000000000000000000000,
|
|
200000000000000000000000200000000000000000000000,
|
|
200000000200000000200000000000000000000000000000,
|
|
100000000100000000100000000000000000000000000000,
|
|
100000000100000000100000000000000000000000000000,
|
|
700000000000000000000000000800000000000000000000,
|
|
700000000000000000000000000800000000000000000000,
|
|
100000000000000000000000100000000000000000000000,
|
|
100000000100000000100000000000000000000000000000,
|
|
200000000000000000000000200000000000000000000000,
|
|
200000000200000000200000000000000000000000000000,
|
|
100000000100000000100000000000000000000000000000,
|
|
100000000100000000100000000000000000000000000000,
|
|
100000000000100000000000100000000000100000000000,
|
|
700000000000000000000000000800000000000000000000,
|
|
100000000000100000000000100000000000100000000000,
|
|
100000000000000000300000000000000000000000000000,
|
|
200000000000200000000000200000000000200000000000,
|
|
200000000000000000400000000000000000000000000000,
|
|
100000000000100000000000100000000000100000000000,
|
|
100000000000000000300000000000000000000000000000,
|
|
100000000000100000000000100000000000100000000000,
|
|
500000000000000000000000800000000000000000000000,
|
|
300000000000300000000000300000000000000000000000,
|
|
#GOGOSTART
|
|
100000000000000000100000000000000000100000000000,
|
|
100000000000000000100000000000000000100000000000,
|
|
100000000000000000300000000000000000000000000000,
|
|
100000000000000000300000000000000000000000000000,
|
|
100000000000000000100000000000000000100000000000,
|
|
100000000000000000100000000000000000100000000000,
|
|
100000000000000000300000000000000000000000000000,
|
|
300000000300000000300000000000000000000000000000,
|
|
100000000000000000200000000000000000100000000000,
|
|
100000000000000000200000000000000000100000000000,
|
|
100000000000000000300000000000000000000000000000,
|
|
400000000400000000400000000000000000000000000000,
|
|
100000000000000000200000000000000000100000000000,
|
|
100000000000000000200000000000000000100000000000,
|
|
100000000000000000300000000000000000400000000000,
|
|
900000000000000000000000000000000000000000000008,
|
|
#GOGOEND
|
|
|
|
|
|
#END
|
|
|
|
|
|
COURSE:Easy
|
|
LEVEL:3
|
|
BALLOON:4,4,4,4,6
|
|
SCOREINIT:850
|
|
SCOREDIFF:240
|
|
|
|
|
|
#START
|
|
|
|
|
|
100000000000000000000000100000000000000000000000,
|
|
100000000000000000000000100000000000000000000000,
|
|
200000000000000000000000200000000000000000000000,
|
|
200000000000000000000000200000000000000000000000,
|
|
100000000000000000100000000000000000000000000000,
|
|
200000000000000000200000000000000000000000000000,
|
|
100000000000000000100000000000000000000000000000,
|
|
200000000000000000200000000000000000000000000000,
|
|
100000000000000000100000000000000000000000000000,
|
|
200000000000000000200000000000000000000000000000,
|
|
100000000000000000100000000000000000000000000000,
|
|
700000000000000000000000800000000000000000000000,
|
|
100000000000100000000000100000000000000000000000,
|
|
100000000000100000000000000000000000000000000000,
|
|
200000000000200000000000200000000000000000000000,
|
|
200000000000200000000000000000000000000000000000,
|
|
100000000000100000000000100000000000000000000000,
|
|
100000000000100000000000000000000000000000000000,
|
|
200000000000200000000000200000000000000000000000,
|
|
100000000000000000300000000000000000000000000000,
|
|
100000000000000000000000100000000000000000000000,
|
|
100000000000000000100000000000000000000000000000,
|
|
200000000000000000000000200000000000000000000000,
|
|
200000000000000000200000000000000000000000000000,
|
|
100000000000000000100000000000000000000000000000,
|
|
200000000000000000200000000000000000000000000000,
|
|
700000000000000000000000800000000000000000000000,
|
|
700000000000000000000000800000000000000000000000,
|
|
100000000000000000000000100000000000000000000000,
|
|
100000000000000000100000000000000000000000000000,
|
|
200000000000000000000000200000000000000000000000,
|
|
200000000000000000200000000000000000000000000000,
|
|
100000000000000000100000000000000000000000000000,
|
|
200000000000000000200000000000000000000000000000,
|
|
100000000000000000000000100000000000000000000000,
|
|
700000000000000000000000800000000000000000000000,
|
|
000000000000100000000000000000000000100000000000,
|
|
100000000000000000300000000000000000000000000000,
|
|
000000000000200000000000000000000000200000000000,
|
|
200000000000000000400000000000000000000000000000,
|
|
000000000000100000000000000000000000100000000000,
|
|
100000000000000000300000000000000000000000000000,
|
|
100000000000000000000000100000000000000000000000,
|
|
500000000000000000000000800000000000000000000000,
|
|
300000000000000000000000300000000000000000000000,
|
|
#GOGOSTART
|
|
100000000000100000000000100000000000000000000000,
|
|
500000000000000000800000000000000000000000000000,
|
|
100000000000100000000000100000000000000000000000,
|
|
500000000000000000800000000000000000000000000000,
|
|
100000000000100000000000200000000000000000000000,
|
|
500000000000000000800000000000000000000000000000,
|
|
100000000000100000000000200000000000000000000000,
|
|
500000000000000000800000000000000000000000000000,
|
|
100000000000100000000000100000000000000000000000,
|
|
100000000000000000000000100000000000000000000000,
|
|
100000000000100000000000100000000000000000000000,
|
|
300000000000000000300000000000000000000000000000,
|
|
100000000000100000000000200000000000000000000000,
|
|
100000000000000000000000100000000000000000000000,
|
|
100000000000100000000000100000000000100000000000,
|
|
900000000000000000000000000000000000000000000008,
|
|
#GOGOEND
|
|
|
|
|
|
#END
|
|
|