1050 lines
13 KiB
Plaintext
1050 lines
13 KiB
Plaintext
//TJADB Project
|
|
TITLE:Buru-chan no Oyatsu
|
|
TITLEJA:ブルちゃんのおやつ
|
|
SUBTITLE:--Yasuaki Matsuda feat. Mio Ishida & Tomomitsu Kaneko
|
|
BPM:154.01
|
|
WAVE:Buru-chan no Oyatsu.ogg
|
|
OFFSET:-3.334
|
|
DEMOSTART:31.390
|
|
|
|
COURSE:Oni
|
|
LEVEL:6
|
|
|
|
STYLE:Double
|
|
BALLOON:9,9,9,9,9,9,7,7,7
|
|
SCOREINIT:570
|
|
SCOREDIFF:155
|
|
|
|
|
|
#START P1
|
|
|
|
|
|
,
|
|
0111,
|
|
2,
|
|
0113,
|
|
2,
|
|
0113,
|
|
2,
|
|
#BPMCHANGE 154.34
|
|
00000330,
|
|
#BPMCHANGE 154.01
|
|
,
|
|
00000220,
|
|
#BPMCHANGE 155.49
|
|
33,
|
|
#BPMCHANGE 152.01
|
|
10110220,
|
|
#BPMCHANGE 154.01
|
|
11211220,
|
|
1010201011202000,
|
|
#BPMCHANGE 155.83
|
|
0404,
|
|
#BPMCHANGE 153.13
|
|
10110220,
|
|
#BPMCHANGE 153.09
|
|
1010201011202000,
|
|
|
|
#BPMCHANGE 153.32
|
|
#SECTION
|
|
#BRANCHSTART p,75,90
|
|
#N
|
|
3030000101010110,
|
|
#BPMCHANGE 154.01
|
|
30113011,
|
|
30112211,
|
|
0010101011101000,
|
|
33403020,
|
|
1010111000000000,
|
|
#BPMCHANGE 154.18
|
|
100000100000100000000000500000000000000008000000,
|
|
#BPMCHANGE 153.28
|
|
01211110,
|
|
#BPMCHANGE 154.58
|
|
30044000,
|
|
|
|
#E
|
|
3030000101020110,
|
|
#BPMCHANGE 154.01
|
|
32113211,
|
|
32112211,
|
|
2010101012201000,
|
|
33403220,
|
|
1010111000000000,
|
|
#BPMCHANGE 154.18
|
|
100000100000100000000000500000000000000008000000,
|
|
#BPMCHANGE 153.28
|
|
0010201011101000,
|
|
#BPMCHANGE 154.58
|
|
30044000,
|
|
|
|
#M
|
|
3030000101020110,
|
|
#BPMCHANGE 154.01
|
|
3020111030201110,
|
|
3020101020201110,
|
|
2010101012201220,
|
|
33403220,
|
|
1010111000000000,
|
|
#BPMCHANGE 154.18
|
|
100000100000100000000000500000000000000008000000,
|
|
#BPMCHANGE 153.28
|
|
0010201011101110,
|
|
#BPMCHANGE 154.58
|
|
30044000,
|
|
|
|
#GOGOSTART
|
|
#BPMCHANGE 154.01
|
|
#SECTION
|
|
#BRANCHSTART p,75,90
|
|
#N
|
|
1001102010001010,
|
|
1001102010001010,
|
|
1001102010011020,
|
|
1000101010111010,
|
|
11121112,
|
|
11121012,
|
|
1010002010101110,
|
|
#BPMCHANGE 154.31
|
|
1000111010000000,
|
|
#GOGOEND
|
|
#BPMCHANGE 153.71
|
|
33,
|
|
#BPMCHANGE 154.01
|
|
10210120,
|
|
|
|
#E
|
|
1001202010011010,
|
|
1001202010011010,
|
|
1001202010011020,
|
|
1000102010111010,
|
|
1011102010111020,
|
|
1011102011001020,
|
|
1010011010111110,
|
|
#BPMCHANGE 154.31
|
|
1020111030000000,
|
|
#GOGOEND
|
|
#BPMCHANGE 153.71
|
|
33,
|
|
#BPMCHANGE 154.01
|
|
10210120,
|
|
|
|
#M
|
|
100000100100200000200000100000101010100000100000,
|
|
100000000100200000200000100000001010100000100000,
|
|
100000000100200000200000100000101010100000200000,
|
|
1000102010211010,
|
|
1021202010211010,
|
|
1011202011001020,
|
|
3010012010112220,
|
|
#BPMCHANGE 154.31
|
|
1020122030000000,
|
|
#GOGOEND
|
|
#BPMCHANGE 153.71
|
|
33,
|
|
#BPMCHANGE 154.01
|
|
10210120,
|
|
|
|
#SECTION
|
|
#BRANCHSTART p,75,90
|
|
#N
|
|
10210122,
|
|
10210120,
|
|
0404,
|
|
10210120,
|
|
1000201101102000,
|
|
1000201101102000,
|
|
#BPMCHANGE 154.67
|
|
3434,
|
|
#BPMCHANGE 152.29
|
|
7008,
|
|
#BPMCHANGE 154.55
|
|
01211120,
|
|
10121210,
|
|
#BPMCHANGE 155.02
|
|
3434,
|
|
#BPMCHANGE 153.01
|
|
7008,
|
|
|
|
#E
|
|
10210122,
|
|
10210120,
|
|
0404,
|
|
10210120,
|
|
1000201101102020,
|
|
1000201101102020,
|
|
#BPMCHANGE 154.67
|
|
3434,
|
|
#BPMCHANGE 152.25
|
|
7008,
|
|
#BPMCHANGE 154.55
|
|
01211120,
|
|
12121210,
|
|
#BPMCHANGE 155.02
|
|
3434,
|
|
#BPMCHANGE 153.01
|
|
7008,
|
|
|
|
#M
|
|
10210122,
|
|
10210120,
|
|
0404,
|
|
10210120,
|
|
1010201101102020,
|
|
1010201101102220,
|
|
#BPMCHANGE 154.67
|
|
3434,
|
|
#BPMCHANGE 152.29
|
|
7008,
|
|
#BPMCHANGE 154.55
|
|
0010201010102110,
|
|
1020102010201110,
|
|
#BPMCHANGE 155.02
|
|
3434,
|
|
#BPMCHANGE 153.01
|
|
7008,
|
|
|
|
#BPMCHANGE 154.01
|
|
#SECTION
|
|
#BRANCHSTART p,75,90
|
|
#N
|
|
01211020,
|
|
44040000,
|
|
#BPMCHANGE 153.21
|
|
11,
|
|
#BPMCHANGE 154.42
|
|
1212,
|
|
#BPMCHANGE 153.42
|
|
12221222,
|
|
#BPMCHANGE 154.34
|
|
12221222,
|
|
1212,
|
|
1212,
|
|
#BPMCHANGE 154.51
|
|
10201120,
|
|
#BPMCHANGE 154.36
|
|
10201120,
|
|
#BPMCHANGE 154.01
|
|
10221120,
|
|
10221122,
|
|
11221122,
|
|
#BPMCHANGE 153.01
|
|
07000080,
|
|
|
|
#E
|
|
01211120,
|
|
4040004000101110,
|
|
#BPMCHANGE 153.21
|
|
11,
|
|
#BPMCHANGE 154.42
|
|
12221222,
|
|
#BPMCHANGE 153.42
|
|
1020202010202022,
|
|
#BPMCHANGE 154.34
|
|
1020202210202022,
|
|
10201120,
|
|
10201120,
|
|
#BPMCHANGE 154.51
|
|
10221120,
|
|
#BPMCHANGE 154.36
|
|
1000202011102000,
|
|
#BPMCHANGE 154.01
|
|
1010202011102000,
|
|
1010202011102020,
|
|
1010202010102220,
|
|
#BPMCHANGE 153.01
|
|
07000080,
|
|
|
|
#M
|
|
0010201010102110,
|
|
4040004000101110,
|
|
#BPMCHANGE 153.21
|
|
12221222,
|
|
#BPMCHANGE 154.42
|
|
1020202010202022,
|
|
#BPMCHANGE 153.42
|
|
1020202210202022,
|
|
#BPMCHANGE 154.34
|
|
1020222210222222,
|
|
10201120,
|
|
10201120,
|
|
#BPMCHANGE 154.51
|
|
10221120,
|
|
#BPMCHANGE 154.36
|
|
1000202011102000,
|
|
#BPMCHANGE 154.01
|
|
1010202011102020,
|
|
1010202011102020,
|
|
1010202011102220,
|
|
#BPMCHANGE 153.01
|
|
07000080,
|
|
|
|
#GOGOSTART
|
|
#BPMCHANGE 154.01
|
|
#SECTION
|
|
#BRANCHSTART p,75,90
|
|
#N
|
|
30113011,
|
|
30112211,
|
|
0010101011101000,
|
|
33403020,
|
|
00002222,
|
|
#BPMCHANGE 154.7
|
|
100000100000100000000000500000000000000008000000,
|
|
02011010,
|
|
#BPMCHANGE 154.01
|
|
22021011,
|
|
21221011,
|
|
21221030,
|
|
500000000000000008000000300000300000300000300000,
|
|
01011210,
|
|
3,
|
|
|
|
#E
|
|
32113211,
|
|
32112211,
|
|
2010101012201000,
|
|
33403220,
|
|
0000000020202220,
|
|
#BPMCHANGE 154.7
|
|
100000100000100000000000500000000000000008000000,
|
|
0020001010001110,
|
|
#BPMCHANGE 154.01
|
|
2020002010001110,
|
|
2010202010101110,
|
|
21223030,
|
|
1110111030303030,
|
|
01011210,
|
|
3,
|
|
|
|
#M
|
|
3020111030201110,
|
|
3020101020201110,
|
|
2010101012201220,
|
|
33403220,
|
|
0000000020202220,
|
|
#BPMCHANGE 154.67
|
|
100000100000200000000000500000000000000008000000,
|
|
0020001011101110,
|
|
#BPMCHANGE 154.01
|
|
2020002011101110,
|
|
2010202011101110,
|
|
2210202030003000,
|
|
2210221030303030,
|
|
01011210,
|
|
3,
|
|
|
|
#BRANCHEND
|
|
#GOGOEND
|
|
|
|
|
|
#END
|
|
|
|
|
|
#START P2
|
|
|
|
|
|
,
|
|
0111,
|
|
2,
|
|
0113,
|
|
2,
|
|
0113,
|
|
2,
|
|
#BPMCHANGE 154.34
|
|
00000330,
|
|
#BPMCHANGE 154.01
|
|
,
|
|
00000220,
|
|
#BPMCHANGE 155.49
|
|
0404,
|
|
#BPMCHANGE 152.01
|
|
10110220,
|
|
#BPMCHANGE 154.01
|
|
11211220,
|
|
1010201011202000,
|
|
#BPMCHANGE 155.83
|
|
33,
|
|
#BPMCHANGE 153.13
|
|
10110220,
|
|
#BPMCHANGE 153.09
|
|
1010201011202000,
|
|
|
|
#BPMCHANGE 153.32
|
|
#SECTION
|
|
#BRANCHSTART p,75,90
|
|
#N
|
|
3030000101010110,
|
|
#BPMCHANGE 154.01
|
|
30113011,
|
|
30112211,
|
|
0010101011101000,
|
|
33403020,
|
|
00002222,
|
|
#BPMCHANGE 154.18
|
|
100000100000100000000000500000000000000008000000,
|
|
#BPMCHANGE 153.28
|
|
01211110,
|
|
#BPMCHANGE 154.58
|
|
30044000,
|
|
|
|
#E
|
|
3030000101020110,
|
|
#BPMCHANGE 154.01
|
|
32113211,
|
|
32112211,
|
|
2010101012201000,
|
|
33403220,
|
|
0000000020202220,
|
|
#BPMCHANGE 154.18
|
|
100000100000100000000000500000000000000008000000,
|
|
#BPMCHANGE 153.28
|
|
0010201011101000,
|
|
#BPMCHANGE 154.58
|
|
30044000,
|
|
|
|
#M
|
|
3030000101020110,
|
|
#BPMCHANGE 154.01
|
|
3020111030201110,
|
|
3020101020201110,
|
|
2010101012201220,
|
|
33403220,
|
|
0000000020202220,
|
|
#BPMCHANGE 154.18
|
|
100000100000100000000000500000000000000008000000,
|
|
#BPMCHANGE 153.28
|
|
0010201011101110,
|
|
#BPMCHANGE 154.58
|
|
30044000,
|
|
|
|
#GOGOSTART
|
|
#BPMCHANGE 154.01
|
|
#SECTION
|
|
#BRANCHSTART p,75,90
|
|
#N
|
|
1001102010001010,
|
|
1001102010001010,
|
|
1001102010011020,
|
|
1000101010111010,
|
|
11121112,
|
|
11121012,
|
|
1010002010101110,
|
|
#BPMCHANGE 154.31
|
|
1000111010000000,
|
|
#GOGOEND
|
|
#BPMCHANGE 153.71
|
|
0404,
|
|
#BPMCHANGE 154.01
|
|
10210120,
|
|
|
|
#E
|
|
1001202010011010,
|
|
1001202010011010,
|
|
1001202010011020,
|
|
1000102010111010,
|
|
1011102010111020,
|
|
1011102011001020,
|
|
1010011010111110,
|
|
#BPMCHANGE 154.31
|
|
1020111030000000,
|
|
#GOGOEND
|
|
#BPMCHANGE 153.71
|
|
0404,
|
|
#BPMCHANGE 154.01
|
|
10210120,
|
|
|
|
#M
|
|
100000100100200000200000100000101010100000100000,
|
|
100000000100200000200000100000001010100000100000,
|
|
100000000100200000200000100000101010100000200000,
|
|
1000102010211010,
|
|
1021202010211010,
|
|
1011202011001020,
|
|
3010012010112220,
|
|
#BPMCHANGE 154.31
|
|
1020122030000000,
|
|
#GOGOEND
|
|
#BPMCHANGE 153.71
|
|
0404,
|
|
#BPMCHANGE 154.01
|
|
10210120,
|
|
|
|
#SECTION
|
|
#BRANCHSTART p,75,90
|
|
#N
|
|
10210122,
|
|
10210120,
|
|
33,
|
|
10210120,
|
|
1000201101102000,
|
|
1000201101102000,
|
|
#BPMCHANGE 154.67
|
|
3434,
|
|
#BPMCHANGE 152.29
|
|
7008,
|
|
#BPMCHANGE 154.55
|
|
01211120,
|
|
10121210,
|
|
#BPMCHANGE 155.02
|
|
3434,
|
|
#BPMCHANGE 153.01
|
|
7008,
|
|
|
|
#E
|
|
10210122,
|
|
10210120,
|
|
33,
|
|
10210120,
|
|
1000201101102020,
|
|
1000201101102020,
|
|
#BPMCHANGE 154.67
|
|
3434,
|
|
#BPMCHANGE 152.25
|
|
7008,
|
|
#BPMCHANGE 154.55
|
|
01211120,
|
|
12121210,
|
|
#BPMCHANGE 155.02
|
|
3434,
|
|
#BPMCHANGE 153.01
|
|
7008,
|
|
|
|
#M
|
|
10210122,
|
|
10210120,
|
|
33,
|
|
10210120,
|
|
1010201101102020,
|
|
1010201101102220,
|
|
#BPMCHANGE 154.67
|
|
3434,
|
|
#BPMCHANGE 152.29
|
|
7008,
|
|
#BPMCHANGE 154.55
|
|
0010201010102110,
|
|
1020102010201110,
|
|
#BPMCHANGE 155.02
|
|
3434,
|
|
#BPMCHANGE 153.01
|
|
7008,
|
|
|
|
#BPMCHANGE 154.01
|
|
#SECTION
|
|
#BRANCHSTART p,75,90
|
|
#N
|
|
01211020,
|
|
44040000,
|
|
#BPMCHANGE 153.21
|
|
11,
|
|
#BPMCHANGE 154.42
|
|
1212,
|
|
#BPMCHANGE 153.42
|
|
12221222,
|
|
#BPMCHANGE 154.34
|
|
12221222,
|
|
1212,
|
|
1212,
|
|
#BPMCHANGE 154.51
|
|
10201120,
|
|
#BPMCHANGE 154.36
|
|
10201120,
|
|
#BPMCHANGE 154.01
|
|
10221120,
|
|
10221122,
|
|
11221122,
|
|
#BPMCHANGE 153.01
|
|
07000080,
|
|
|
|
#E
|
|
01211120,
|
|
4040004000101110,
|
|
#BPMCHANGE 153.21
|
|
11,
|
|
#BPMCHANGE 154.42
|
|
12221222,
|
|
#BPMCHANGE 153.42
|
|
1020202010202022,
|
|
#BPMCHANGE 154.34
|
|
1020202210202022,
|
|
10201120,
|
|
10201120,
|
|
#BPMCHANGE 154.51
|
|
10221120,
|
|
#BPMCHANGE 154.36
|
|
1000202011102000,
|
|
#BPMCHANGE 154.01
|
|
1010202011102000,
|
|
1010202011102020,
|
|
1010202010102220,
|
|
#BPMCHANGE 153.01
|
|
07000080,
|
|
|
|
#M
|
|
0010201010102110,
|
|
4040004000101110,
|
|
#BPMCHANGE 153.21
|
|
12221222,
|
|
#BPMCHANGE 154.42
|
|
1020202010202022,
|
|
#BPMCHANGE 153.42
|
|
1020202210202022,
|
|
#BPMCHANGE 154.34
|
|
1020222210222222,
|
|
10201120,
|
|
10201120,
|
|
#BPMCHANGE 154.51
|
|
10221120,
|
|
#BPMCHANGE 154.36
|
|
1000202011102000,
|
|
#BPMCHANGE 154.01
|
|
1010202011102020,
|
|
1010202011102020,
|
|
1010202011102220,
|
|
#BPMCHANGE 153.01
|
|
07000080,
|
|
|
|
#GOGOSTART
|
|
#BPMCHANGE 154.01
|
|
#SECTION
|
|
#BRANCHSTART p,75,90
|
|
#N
|
|
30113011,
|
|
30112211,
|
|
0010101011101000,
|
|
33403020,
|
|
1010111000000000,
|
|
#BPMCHANGE 154.7
|
|
100000100000100000000000500000000000000008000000,
|
|
02011010,
|
|
#BPMCHANGE 154.01
|
|
22021011,
|
|
21221011,
|
|
21221030,
|
|
500000000000000008000000300000300000300000300000,
|
|
01011210,
|
|
3,
|
|
|
|
#E
|
|
32113211,
|
|
32112211,
|
|
2010101012201000,
|
|
33403220,
|
|
1010111000000000,
|
|
#BPMCHANGE 154.7
|
|
100000100000100000000000500000000000000008000000,
|
|
0020001010001110,
|
|
#BPMCHANGE 154.01
|
|
2020002010001110,
|
|
2010202010101110,
|
|
21223030,
|
|
1110111030303030,
|
|
01011210,
|
|
3,
|
|
|
|
#M
|
|
3020111030201110,
|
|
3020101020201110,
|
|
2010101012201220,
|
|
33403220,
|
|
1010111000000000,
|
|
#BPMCHANGE 154.67
|
|
100000100000200000000000500000000000000008000000,
|
|
0020001011101110,
|
|
#BPMCHANGE 154.01
|
|
2020002011101110,
|
|
2010202011101110,
|
|
2210202030003000,
|
|
2210221030303030,
|
|
01011210,
|
|
3,
|
|
|
|
#BRANCHEND
|
|
#GOGOEND
|
|
|
|
|
|
#END
|
|
|
|
|
|
COURSE:Hard
|
|
LEVEL:5
|
|
BALLOON:8,8
|
|
SCOREINIT:700
|
|
SCOREDIFF:203
|
|
|
|
|
|
#START
|
|
|
|
|
|
,
|
|
,
|
|
,
|
|
0221,
|
|
2,
|
|
0221,
|
|
3,
|
|
#BPMCHANGE 154.329
|
|
00202110,
|
|
#BPMCHANGE 154
|
|
3,
|
|
00000110,
|
|
#BPMCHANGE 155.48
|
|
11,
|
|
#BPMCHANGE 152
|
|
10110220,
|
|
#BPMCHANGE 154.001
|
|
12221100,
|
|
12221100,
|
|
#BPMCHANGE 155.826
|
|
0202,
|
|
#BPMCHANGE 153.125
|
|
10110222,
|
|
#BPMCHANGE 153.081
|
|
12221100,
|
|
#BPMCHANGE 153.314
|
|
12000000,
|
|
#BPMCHANGE 154
|
|
11,
|
|
10110000,
|
|
01111111,
|
|
1110,
|
|
10110000,
|
|
#BPMCHANGE 154.171
|
|
11201000,
|
|
#BPMCHANGE 153.267
|
|
01012110,
|
|
#BPMCHANGE 154.57
|
|
30012000,//26
|
|
|
|
|
|
#GOGOSTART
|
|
#BPMCHANGE 154
|
|
1002201012012010,
|
|
1002201012012010,
|
|
1002201012012010,
|
|
10111120,
|
|
11201120,
|
|
2002002001001010,
|
|
1020020010201010,
|
|
#BPMCHANGE 154.302
|
|
100000000000500000000000000000000008000000000000,//34
|
|
|
|
#GOGOEND
|
|
#BPMCHANGE 153.701
|
|
33,
|
|
#BPMCHANGE 154
|
|
10210000,
|
|
|
|
10201121,
|
|
1210,
|
|
0404,
|
|
10210000,
|
|
10201121,
|
|
1000200011011110,
|
|
#BPMCHANGE 154.658
|
|
33,
|
|
#BPMCHANGE 152.279
|
|
7008,
|
|
#BPMCHANGE 154.546
|
|
01111121,
|
|
12121210,
|
|
#BPMCHANGE 155.014
|
|
0404,
|
|
#BPMCHANGE 153
|
|
7008,
|
|
|
|
#BPMCHANGE 154.001
|
|
01011121,
|
|
12121210,
|
|
#BPMCHANGE 153.205
|
|
11,
|
|
#BPMCHANGE 154.412
|
|
1000000010001110,
|
|
#BPMCHANGE 153.409
|
|
11,
|
|
#BPMCHANGE 154.329
|
|
1000000010001110,
|
|
12221100,
|
|
12221100,
|
|
#BPMCHANGE 154.5
|
|
12221100,
|
|
#BPMCHANGE 154.351
|
|
12221100,
|
|
#BPMCHANGE 154
|
|
11221020,
|
|
11221021,
|
|
11221020,
|
|
#BPMCHANGE 153.001
|
|
1212,//62
|
|
|
|
|
|
#GOGOSTART
|
|
#BPMCHANGE 154.001
|
|
11,
|
|
10110000,
|
|
01111110,
|
|
1110,
|
|
10110000,
|
|
#BPMCHANGE 154.687
|
|
1110,
|
|
01011111,
|
|
#BPMCHANGE 154
|
|
01011111,
|
|
01012112,
|
|
01012112,
|
|
01012112,
|
|
03033330,
|
|
3,//75
|
|
|
|
#GOGOEND
|
|
,
|
|
,
|
|
#END
|
|
|
|
COURSE:Normal
|
|
LEVEL:4
|
|
BALLOON:7,7
|
|
SCOREINIT:870
|
|
SCOREDIFF:308
|
|
|
|
#START
|
|
,
|
|
,
|
|
,
|
|
0111,
|
|
1,
|
|
0111,
|
|
1,
|
|
#BPMCHANGE 154.329
|
|
00000110,
|
|
#BPMCHANGE 154
|
|
,
|
|
00000110,
|
|
#BPMCHANGE 155.48
|
|
11,
|
|
#BPMCHANGE 152
|
|
10110020,
|
|
#BPMCHANGE 154.001
|
|
,
|
|
00000110,
|
|
#BPMCHANGE 155.826
|
|
0202,
|
|
#BPMCHANGE 153.125
|
|
10110000,
|
|
#BPMCHANGE 153.081
|
|
,
|
|
#BPMCHANGE 153.314
|
|
,
|
|
#BPMCHANGE 154
|
|
11,
|
|
10110000,
|
|
01111010,
|
|
1110,
|
|
1100,
|
|
#BPMCHANGE 154.171
|
|
11101000,
|
|
#BPMCHANGE 153.267
|
|
01011010,
|
|
#BPMCHANGE 154.57
|
|
34,//26
|
|
#GOGOSTART
|
|
#BPMCHANGE 154
|
|
1021,
|
|
1012,
|
|
1021,
|
|
10111010,
|
|
1202,
|
|
10220000,
|
|
11001000,
|
|
#BPMCHANGE 154.302
|
|
100000000000000000000000500000000008000000000000,//34
|
|
#GOGOEND
|
|
#BPMCHANGE 153.701
|
|
33,
|
|
#BPMCHANGE 154
|
|
10110000,
|
|
1110,
|
|
1220,
|
|
0404,
|
|
10110000,
|
|
1110,
|
|
1210,
|
|
#BPMCHANGE 154.658
|
|
33,
|
|
#BPMCHANGE 152.279
|
|
7008,
|
|
#BPMCHANGE 154.546
|
|
01111010,
|
|
1110,
|
|
#BPMCHANGE 155.014
|
|
0404,
|
|
#BPMCHANGE 153
|
|
7008,
|
|
#BPMCHANGE 154.001
|
|
01111010,
|
|
11010000,
|
|
#BPMCHANGE 153.205
|
|
1200,
|
|
#BPMCHANGE 154.412
|
|
1200,
|
|
#BPMCHANGE 153.409
|
|
1200,
|
|
#BPMCHANGE 154.329
|
|
1200,
|
|
12,
|
|
11,
|
|
#BPMCHANGE 154.5
|
|
12,
|
|
#BPMCHANGE 154.351
|
|
11,
|
|
#BPMCHANGE 154
|
|
10220000,
|
|
1202,
|
|
10220000,
|
|
#BPMCHANGE 153.001
|
|
100000000000200000000000500000000000000008000000,//62
|
|
#GOGOSTART
|
|
#BPMCHANGE 154.001
|
|
11,
|
|
10110000,
|
|
01111010,
|
|
1110,
|
|
1100,
|
|
#BPMCHANGE 154.687
|
|
1210,
|
|
01011010,
|
|
#BPMCHANGE 154
|
|
01011010,
|
|
01011011,
|
|
01011011,
|
|
01011111,
|
|
000000100000000000500000000000000008000000000000,
|
|
3,//75
|
|
#GOGOEND
|
|
,
|
|
,
|
|
#END
|
|
|
|
COURSE:Easy
|
|
LEVEL:2
|
|
BALLOON:6,6
|
|
SCOREINIT:760
|
|
SCOREDIFF:343
|
|
|
|
#START
|
|
,
|
|
,
|
|
,
|
|
0001,
|
|
,
|
|
0001,
|
|
1,
|
|
#BPMCHANGE 154.329
|
|
00000220,
|
|
#BPMCHANGE 154
|
|
,
|
|
,
|
|
#BPMCHANGE 155.48
|
|
11,
|
|
#BPMCHANGE 152
|
|
1100,
|
|
#BPMCHANGE 154.001
|
|
,
|
|
1,
|
|
#BPMCHANGE 155.826
|
|
0202,
|
|
#BPMCHANGE 153.125
|
|
1100,
|
|
#BPMCHANGE 153.081
|
|
,
|
|
#BPMCHANGE 153.314
|
|
,
|
|
#BPMCHANGE 154
|
|
11,
|
|
1100,
|
|
11,
|
|
12,
|
|
1,
|
|
#BPMCHANGE 154.171
|
|
1110,
|
|
#BPMCHANGE 153.267
|
|
11,
|
|
#BPMCHANGE 154.57
|
|
34,//26
|
|
#GOGOSTART
|
|
#BPMCHANGE 154
|
|
12,
|
|
11,
|
|
12,
|
|
1110,
|
|
12,
|
|
1100,
|
|
11,
|
|
#BPMCHANGE 154.302
|
|
11,//34
|
|
#GOGOEND
|
|
#BPMCHANGE 153.701
|
|
31,
|
|
#BPMCHANGE 154
|
|
1100,
|
|
12,
|
|
1100,
|
|
0402,
|
|
1100,
|
|
12,
|
|
1100,
|
|
#BPMCHANGE 154.658
|
|
34,
|
|
#BPMCHANGE 152.279
|
|
7008,
|
|
#BPMCHANGE 154.546
|
|
1100,
|
|
2200,
|
|
#BPMCHANGE 155.014
|
|
34,
|
|
#BPMCHANGE 153
|
|
7008,
|
|
#BPMCHANGE 154.001
|
|
1100,
|
|
2200,
|
|
#BPMCHANGE 153.205
|
|
11,
|
|
#BPMCHANGE 154.412
|
|
11,
|
|
#BPMCHANGE 153.409
|
|
11,
|
|
#BPMCHANGE 154.329
|
|
11,
|
|
12,
|
|
12,
|
|
#BPMCHANGE 154.5
|
|
12,
|
|
#BPMCHANGE 154.351
|
|
12,
|
|
#BPMCHANGE 154
|
|
1100,
|
|
1100,
|
|
1100,
|
|
#BPMCHANGE 153.001
|
|
1100,//62
|
|
#GOGOSTART
|
|
#BPMCHANGE 154.001
|
|
11,
|
|
1100,
|
|
11,
|
|
1,
|
|
1100,
|
|
#BPMCHANGE 154.687
|
|
1110,
|
|
10010000,
|
|
#BPMCHANGE 154
|
|
10010000,
|
|
30011000,
|
|
30011000,
|
|
500000000000000000000000000008000000000000000000,
|
|
600000000000000000000000000008000000000000000000,
|
|
3,//75
|
|
#GOGOEND
|
|
,
|
|
,
|
|
#END |