Files
ESE/09 Namco Original/Taiko Session ~Live Version~/Taiko Session ~Live Version~.tja
T
2023-06-15 19:15:39 -05:00

343 lines
6.8 KiB
Plaintext
Raw Blame History

This file contains ambiguous Unicode characters
This file contains Unicode characters that might be confused with other characters. If you think that this is intentional, you can safely ignore this warning. Use the Escape button to reveal them.
//TJADB Project
TITLE:Taiko Session ~Live Version~
TITLEJA:Taiko Session 〜Live Version〜
SUBTITLE:--Jesahm
BPM:140
WAVE:Taiko Session ~Live Version~.ogg
OFFSET:-1.973
DEMOSTART:17.402
COURSE:Edit
LEVEL:9
SCOREINIT:830
SCOREDIFF:233
#START
000000000000100000101010200000101010200000000000,
100000000000000010001000000010000000200000001000,
100010000000100010001000000010000000200010000000,
100000000000000010001000000010000000200000000000,
100010000000200000001000000010000000200200100000,
100000000000000000001000000010000000200000000000,
100010000000100010001000000010000000200000000000,
100000000000000010001000000010000000200000000000,
200000200200000100100100200100100100200200000200,
100000000000200000001000100010000000200000001000,
100010000000200000001000100010000000200010001000,
100000000000200000001000100010000000200000001000,
100010000000200010000000100000001000200000001000,
100000000000200000001000100010000000200000001000,
100010000000200010001000100010000000200010001000,
300000000000400000002000100000101000000000003000,
000000000200200000000000000000000000000000000000,
100100100000100100200000000200100000100100200000,
000100100000100200100100000100100200000100000100,
200000100100100200000100200000100100100100100100,
100100100200000200000100000100000100200000000200,
100010102000100010101000200000002000100020001000,
100000003000000000001000200020001000100020002000,
100010002000200010001000200000200000220000000000,
101000001010000010100000101000001000100020002000,
300000000000000000000000000000000000200000000000,
100000000000100000001000000010000000200010000000,
100000000000100000001000000010000000220000000000,
100000000000200000001000100010000000200100100200,
100100100100100200100100220000002000000010001000,
100000000000100000001000100010000000200000000000,
100000000000200010002000000000000100000000001010,
200000001000200000001000000040000000400000004000,
000000000000000000000000500000000000000008000000,
#GOGOSTART
200000100100200000100200000000100100100000100100,
200000100100100000100100200000100200000000100000,
200000100000100200000000200000100100100000100100,
200000100200100100100000100000100100200000100100,
100000100000000000300000000000200000000000400000,
000000100100100000100100100000100200000000400000,
100000200100000300000000400000100100100000100100,
200000100100100200100000000000100000200020002000,
#GOGOEND
100000000000200000101000100000000000200010001000,
100000001000200000100000100100000200000100200100,
100000002000000010010000000000001000000020000000,
000000100010200000000000300000002000100000001000,
100000000000200000202020200000002000200020000000,
100100100100100100100100200000002000100040000000,
100000101010100010000000100010001000100000001000,
400000000000000000000000000000000000000000000000,
#END
COURSE:Oni
LEVEL:7
SCOREINIT:1360
SCOREDIFF:455
#START
000000000000000000000000000000000000000000000000,
100000000000000000001000000010000000000000000000,
100000000000000000001000000010000000200000000000,
100000000000000000001000000010000000000000000000,
100020000000200000001000000010000000200000000000,
100000000000000000001000000010000000000000000000,
100000000000000000001000000010000000200000000000,
100000000000000000001000000010000000000000000000,
200000200200000100100000100000000000200200000000,
100000000000100000001000000020000000200000001000,
000000000000000000001000000010000000200000000000,
100000001000100000001000100000000000200000000000,
100000000000300000000000000000000000000000000000,
100000000000100000001000000020000000200000001000,
000000000000000000001000000010000000200000000000,
100000001000200000001000100000000000000000002000,
000000000000000000000000000000000000000000000000,
100000000000000000200000000100000200100000000000,
100000000000000000200000000100000200100000100000,
100000000000000000200000000100000200100000000000,
100000000000000000200000000100000200100000000100,
000000000000100000001000000000000000100000002000,
100000002000000000001000200000000000100020002000,
000010002000200000000000200000200000200000000000,
100000001000000010000000100000001000000010000000,
300000000000000000000000000000000000000000000000,
100000000000000000001000000010000000000000000000,
100000000000000000001000000010000000200000000000,
100000000000000000001000000010000000000000000000,
100000000000000000000000000000000000200020001000,
100000000000000000001000000010000000000000000000,
100000000000000010000000000000100000000000000000,
100000001000100000001000000010000000100000001000,
000000000000000000000000500000000000008000000000,
#GOGOSTART
200000200200200000200200200000200200200000200200,
200000200200200000200200200000200200200100100100,
200000200200200000200200100000000100000000100000,
000000200000200000000000200000000200000000200000,
000000100000000000100000000000100000000000100000,
000000100000000000100000100000000100000000300000,
000000200000000000200000000000200000000000200000,
100000000000000000000000000000000000000000000000,
#GOGOEND
100020001000200010001000200000000000000000000000,
100020001000200010001000200000000000000000000000,
100020001000200010001000200000000000000000000000,
100020001000200010001000200000000000000000000000,
100000000000000000000000500000000000008000000000,
100000000000200000001000000000002000100000000000,
200000001000000000000000100000000000000000000000,
300000000000000000000000000000000000000000000000,
#END
COURSE:Hard
LEVEL:6
SCOREINIT:1580
SCOREDIFF:653
#START
,
100001010000,
100001010200,
100001010000,
100001010200,
100001010000,
100001010200,
100001010000,
2000200022002000,
100101000100,
000001010200,
1112,
1300,
100101000100,
000001010200,
100100100002,
,
02020202,
0020002000200220,
02020202,
02020222,
100100100102,
100100100102,
100100100102,
50000080,
3,
100001010000,
100001010200,
100001010000,
1003,
100001010000,
100010001000,
100000010103,
0000000050000800,
#GOGOSTART
02020202,
1001001000000000,
0020002010010010,
0020200020020020,
01010101,
0010001010010030,
02020202,
,
#GOGOEND
101000100000,
12,
101000100000,
12,
1000000050000800,
100001000100,
001000100000,
3,
#END
COURSE:Normal
LEVEL:4
BALLOON:12,9
SCOREINIT:1930
SCOREDIFF:1450
#START
,
1,
1002,
1,
1002,
1,
1002,
1,
2022,
1101,
0002,
1110,
1300,
1101,
0002,
100100100001,
,
10020001,
01010000,
1022,
2007,
000000000000000000000000000000000000000000000008,
0011,
1120,
50000080,
3,
1,
1002,
1,
3,
1,
1,
100000010103,
,
#GOGOSTART
11,
1001001000000000,
1000000010010010,
,
1111,
10101007,
000000000000000000000000000000000000000000000008,
,
#GOGOEND
11,
1,
11,
12,
13,
11,
001000100000,
3,
#END
COURSE:Easy
LEVEL:3
BALLOON:10,8,7
SCOREINIT:1750
SCOREDIFF:1758
#START
,
1,
1,
1,
,
1,
1,
1,
22,
1101,
,
1100,
1300,
1101,
,
100100100001,
,
10000001,
,
1011,
1,
1007,
000000000000000000000000000000000000000000000008,
0011,
12,
5000000000080000,
3,
1,
1,
1,
3,
1,
1,
50000008,
,
#GOGOSTART
11,
10010000,
17,
08,
11,
10101007,
000000000000000000000000000000000000000000000008,
,
#GOGOEND
1,
1,
1,
1,
13,
1,
001000000000,
3,
#END