generated from DragonRatTiger/Custom-Charts
410 lines
4.4 KiB
Plaintext
410 lines
4.4 KiB
Plaintext
TITLE:Mischievous Function (Old chart)
|
|
TITLEJA:おちゃめ機能
|
|
SUBTITLE:--Lamaze-P feat. Kasane Teto
|
|
SUBTITLEJA:--ラマーズP feat. 重音テト
|
|
BPM:150
|
|
WAVE:mischievousaudio.ogg
|
|
PREIMAGE:Mischievous Function.png
|
|
OFFSET:-0.159
|
|
DEMOSTART:5.95
|
|
MAKER:ugyuu
|
|
|
|
COURSE:Oni
|
|
LEVEL:8
|
|
SCOREINIT:
|
|
SCOREDIFF:
|
|
|
|
#START
|
|
2010201202102010,
|
|
2010201202102010,
|
|
201020120210
|
|
#SCROLL 4
|
|
5800,
|
|
#SCROLL 2
|
|
3004004000
|
|
#SCROLL 1
|
|
201020,
|
|
|
|
#BRANCHSTART r,1,1
|
|
#N
|
|
#GOGOSTART
|
|
#SCROLL 1.25
|
|
1010202100202020,
|
|
2010201200101020,
|
|
2010222200101010,
|
|
2002205008102000,
|
|
1020201200202010,
|
|
2010202200202020,
|
|
1010202200102020,
|
|
1001201002101000,
|
|
#GOGOEND
|
|
#SCROLL 1
|
|
5008201202102022,
|
|
201020120220
|
|
#SCROLL 2
|
|
3000,
|
|
#SCROLL 1
|
|
1000201010012010,
|
|
22211030,
|
|
2000101020012010,
|
|
2020102020012010,
|
|
2000102020012010,
|
|
1020202010001000,
|
|
58125811,
|
|
2010201020102022,
|
|
2000102020012010,
|
|
12211030,
|
|
2000101020012020,
|
|
2010202020012010,
|
|
2000102020012010,
|
|
11222021,
|
|
58215082,
|
|
1020101021102022,
|
|
#SCROLL 1.1
|
|
1020201021101011,
|
|
0120202010100021,
|
|
2020201021202022,
|
|
1011222020200011,
|
|
2020201221220021,
|
|
1010201112100021,
|
|
2120102021212200,
|
|
#SCROLL 2
|
|
1012004000
|
|
#SCROLL 1
|
|
201020,
|
|
#GOGOSTART
|
|
#SCROLL 1.25
|
|
1010202100202020,
|
|
2010201200101020,
|
|
2010222200101010,
|
|
2002205008102000,
|
|
1020201200202010,
|
|
2010202200202020,
|
|
1010202200102020,
|
|
1001201002101000,
|
|
2000101220202220,
|
|
2222121
|
|
#SCROLL 2
|
|
7,
|
|
00008
|
|
#SCROLL 1.25
|
|
211,
|
|
2020102011202011,
|
|
22508212,
|
|
1011205080202050,
|
|
8010508010102021,
|
|
2010102012102022,
|
|
#GOGOEND
|
|
#SCROLL 1
|
|
2010201202102022,
|
|
2010201202
|
|
#SCROLL 3
|
|
304000,
|
|
#BARLINEOFF
|
|
|
|
#M
|
|
#GOGOSTART
|
|
#SCROLL 1.25
|
|
#BARLINEON
|
|
1020202100202020,
|
|
2010201200201020,
|
|
2010211200112010,
|
|
2011202012102022,
|
|
1020201200212010,
|
|
1020201200202020,
|
|
1010201200102020,
|
|
1021101012101000,
|
|
#GOGOEND
|
|
#SCROLL 1
|
|
2011201222102022,
|
|
201120122220
|
|
#SCROLL 2
|
|
3000,
|
|
#SCROLL 1
|
|
10211021,
|
|
22211030,
|
|
20112021,
|
|
2020202020112000,
|
|
20122022,
|
|
1020202010112010,
|
|
20121021,
|
|
1010201022102022,
|
|
20122021,
|
|
12211030,
|
|
20112022,
|
|
2010202010111000,
|
|
20122021,
|
|
1010202020002011,
|
|
20215821,
|
|
1020101021102022,
|
|
#SCROLL 1.1
|
|
1020201122101011,
|
|
0120201210100021,
|
|
2020201121202021,
|
|
1011221021200012,
|
|
2120201211222021,
|
|
1010201212102021,
|
|
2220102011212220,
|
|
#SCROLL 2
|
|
1012004000
|
|
#SCROLL 1
|
|
201020,
|
|
#GOGOSTART
|
|
#SCROLL 1.25
|
|
1020202100202020,
|
|
2010201200201020,
|
|
2010211200112010,
|
|
2011202012102011,
|
|
1020201200212010,
|
|
1020201200202020,
|
|
1010201200102020,
|
|
1021101012101011,
|
|
5080101220202220,
|
|
20202120102010
|
|
#SCROLL 2
|
|
50,
|
|
00008
|
|
#SCROLL 1.25
|
|
211,
|
|
2020102012102011,
|
|
2020200010211020,
|
|
1011202011202050,
|
|
8010102011102021,
|
|
2010102012102022,
|
|
#GOGOEND
|
|
#SCROLL 1
|
|
2011201222102022,
|
|
2011201222
|
|
#SCROLL 3
|
|
304000,
|
|
#BARLINEOFF
|
|
#BRANCHEND
|
|
#GOGOEND
|
|
0,
|
|
|
|
#END
|
|
|
|
COURSE:Hard
|
|
LEVEL:6
|
|
SCOREINIT:
|
|
SCOREDIFF:
|
|
|
|
#START
|
|
1000100202202000,
|
|
1000100202202000,
|
|
1000100202202000,
|
|
#SCROLL 2
|
|
3004004000
|
|
#SCROLL 1
|
|
101010,
|
|
#GOGOSTART
|
|
#SCROLL 1.25
|
|
1000101100101000,
|
|
2000202200002000,
|
|
1020102100001010,
|
|
10120120,
|
|
1000101100101000,
|
|
2000202200202000,
|
|
1000102200001000,
|
|
10110110,
|
|
#GOGOEND
|
|
#SCROLL 1
|
|
5822,
|
|
20202058,
|
|
50815081,
|
|
10111020,
|
|
50815081,
|
|
20212020,
|
|
50825081,
|
|
10121020,
|
|
50825081,
|
|
12212120,
|
|
50825081,
|
|
12211020,
|
|
50815081,
|
|
21211020,
|
|
50815081,
|
|
11222020,
|
|
50825082,
|
|
12112220,
|
|
#SCROLL 1.1
|
|
1000100022200020,
|
|
1011100010100020,
|
|
1020200021202000,
|
|
1011101020200010,
|
|
2011101020002010,
|
|
1010200012100010,
|
|
1020202011102000,
|
|
#SCROLL 2
|
|
3004004000
|
|
#SCROLL 1
|
|
101010,
|
|
#GOGOSTART
|
|
#SCROLL 1.25
|
|
1000101100101000,
|
|
2000202200002000,
|
|
1020102100001010,
|
|
10120120,
|
|
1000101100101000,
|
|
2000202200202000,
|
|
1000102200001000,
|
|
10110110,
|
|
2000001110202220,
|
|
2211221
|
|
#SCROLL 2
|
|
5,
|
|
00008
|
|
#SCROLL 1.25
|
|
111,
|
|
1020102000200011,
|
|
12200212,
|
|
11220215,
|
|
8010500080000021,
|
|
2020102000202012,
|
|
#GOGOEND
|
|
#SCROLL 1
|
|
1000200200102000,
|
|
1000200200
|
|
#SCROLL 3
|
|
304000,
|
|
,
|
|
#END
|
|
|
|
COURSE:Normal
|
|
LEVEL:5
|
|
SCOREINIT:
|
|
SCOREDIFF:
|
|
|
|
#START
|
|
1010,
|
|
1010,
|
|
1010,
|
|
30030000,
|
|
#GOGOSTART
|
|
3110,
|
|
2220,
|
|
2220,
|
|
5008,
|
|
1110,
|
|
2220,
|
|
2220,
|
|
5,
|
|
#GOGOEND
|
|
8,
|
|
0001,
|
|
5080,
|
|
10111010,
|
|
5080,
|
|
10111010,
|
|
5080,
|
|
20222020,
|
|
5080,
|
|
2121,
|
|
2220,
|
|
10111000,
|
|
2120,
|
|
20111000,
|
|
2120,
|
|
10111000,
|
|
2120,
|
|
5008,
|
|
1110,
|
|
1210,
|
|
20222020,
|
|
2220,
|
|
1110,
|
|
1210,
|
|
20222020,
|
|
5080,
|
|
#GOGOSTART
|
|
3110,
|
|
2220,
|
|
2220,
|
|
5008,
|
|
1110,
|
|
2220,
|
|
2220,
|
|
5008,
|
|
2022,
|
|
20202005,
|
|
0080,
|
|
1122,
|
|
1100,
|
|
1110,
|
|
1010,
|
|
5,
|
|
#GOGOEND
|
|
8,
|
|
0004,
|
|
,
|
|
#END
|
|
|
|
COURSE:Easy
|
|
LEVEL:3
|
|
SCOREINIT:
|
|
SCOREDIFF:
|
|
|
|
#START
|
|
1,
|
|
1,
|
|
1,
|
|
5080,
|
|
#GOGOSTART
|
|
3,
|
|
2,
|
|
2020,
|
|
5008,
|
|
1,
|
|
2,
|
|
2020,
|
|
5,
|
|
#GOGOEND
|
|
8,
|
|
0001,
|
|
5080,
|
|
1010,
|
|
5080,
|
|
1110,
|
|
5080,
|
|
2020,
|
|
5080,
|
|
1011,
|
|
1020,
|
|
1110,
|
|
1010,
|
|
1010,
|
|
2020,
|
|
1110,
|
|
1010,
|
|
5008,
|
|
1010,
|
|
1,
|
|
2020,
|
|
2,
|
|
1011,
|
|
1,
|
|
2022,
|
|
5080,
|
|
#GOGOSTART
|
|
3,
|
|
2,
|
|
2020,
|
|
5008,
|
|
1,
|
|
2020,
|
|
1010,
|
|
5008,
|
|
2022,
|
|
20002005,
|
|
0080,
|
|
1020,
|
|
1,
|
|
1100,
|
|
1010,
|
|
5,
|
|
#GOGOEND
|
|
8,
|
|
0004,
|
|
,
|
|
#END
|