Files
2023-06-15 19:15:39 -05:00

235 lines
8.3 KiB
Plaintext

//TJADB Project
TITLE:Aoi Bench
TITLEJA:青いベンチ
SUBTITLE:--Sasuke
BPM:106
WAVE:Aoi Bench.ogg
OFFSET:-4.636
DEMOSTART:74.518
COURSE:Oni
LEVEL:4
#START
000000000000000000000000000000000000000000000000,
000000000000000000000000000000000000000000000000,
100000000100100000100000000000100000200000000000,
100000000100100000100000000200200000200000000000,
100000000100100000100000000000100000200000000000,
100000000100100000100000000000000000000000000000,
100000000100100000100000000000100000200000100000,
100000000100100000100000000200200000200000000000,
100000000100100000100000000000100000200000100000,
100000000000100000100000100000000000100000000000,
100000000100100000100000000000100000200000100000,
100000000100100000100000000200200000100000100000,
100000000000100000100000200000200000100000100000,
000000000000000000000000000000000000000000000000,
100000000100100000100000000000100000200000100100,
100000000100100000100000000200200000200000100100,
100000000100100000100000000000100000200000100100,
100000000000100000100000100000100000100000000000,
100000000100100000100000000000100000200000100100,
100000000100100000100000000200200000100000100000,
100000000000100000100000200000200000100000100000,
000000000000000000000000000000000000000000000000,
100000000000200000100000000100100000200100100000,
100000000000200000100000000100100000200100100000,
100000000000000000000000100000100000100000100000,
000000000000000000000000000000000000100000100000,
100000000000200000100000000100100000200100100000,
100000000000200000100000000100100000200100100000,
100000000000100000100000000000100000100000000000,
500000000000000000000000000000000000000000000000,
000000000000000000000008000000000000000000100100,
#GOGOSTART
100000000100200000100100000100100000200000100100,
100000000100200000100000000100100000100010001000,
100000000100200000100100000100100000100000200000,
100000100000200000100000000000000000000000100100,
100000000100200000100100000100100000200000100100,
100000000100200000100000000000100000100010001000,
100000000000000000500000000000000008000000100100,
100000000100000000100000000000000000300000000000,
#GOGOEND
#END
COURSE:Hard
LEVEL:3
SCOREINIT:1030
SCOREDIFF:300
#START
000000000000000000000000000000000000000000000000,
000000000000000000000000000000000000000000000000,
100000000100100000100000000000000000100000000000,
100000000100100000100000000100100000100000000000,
100000000100100000100000000000000000100000000000,
100000000100100000100000000000000000000000000000,
100000000100100000100000000000100000000000000000,
100000000100100000100000000100100000100000000000,
100000000100100000100000000000100000000000000000,
100000000000100000100000100000000000100000000000,
100000000100100000100000000000100000000000000000,
100000000100100000100000000000000000100000100000,
100000000000100000100000200000200000100000100000,
000000000000000000000000000000000000000000000000,
100000000100100000100000000000100000200000000000,
100000000100100000100000000100100000200000000000,
100000000100100000100000000000100000200000000000,
100000000000100000100000100000100000100000000000,
100000000100100000100000000000100000200000000000,
100000000100100000100000000000000000100000100000,
100000000000100000100000200000200000100000100000,
000000000000000000000000000000000000000000000000,
100000000000200000100000000100100000200000000000,
100000000000200000100000000100100000200000000000,
100000000000000000000000100000100000100000100000,
000000000000000000000000000000000000000000000000,
100000000000200000100000000100100000200000000000,
100000000000200000100000000100100000200000100000,
100000000000100000100000000000100000100000000000,
500000000000000000000000000000000000000000000000,
000000000000000008000000000000000000000000100100,
#GOGOSTART
100000000000200000100000000000100000200000100100,
100000000000200000100000000000000000100010001000,
100000000000200000100000000000100000100000200000,
100000100000200000100000000000000000000000100100,
100000000000200000100000000000100000200000100100,
100000000000200000100000000000000000100010001000,
100000000000000000500000000000000008000000100100,
100000000100000000100000000000000000300000000000,
#GOGOEND
#END
COURSE:Normal
LEVEL:3
SCOREINIT:1200
SCOREDIFF:450
#START
000000000000000000000000000000000000000000000000,
000000000000000000000000000000000000000000000000,
100000000000100000100000000000000000000000000000,
100000000000100000100000000000000000000000000000,
100000000000100000100000000000000000000000000000,
100000000000100000100000000000000000000000000000,
100000000000100000100000000000100000000000000000,
100000000000100000100000000000000000000000000000,
100000000000100000100000000000100000000000000000,
100000000000100000100000000000000000000000000000,
100000000000100000100000000000100000000000000000,
100000000000100000100000000000000000000000000000,
100000000000100000100000100000000000100000100000,
000000000000000000000000000000000000000000000000,
100000000000100000100000000000000000200000000000,
100000000000100000100000000000000000000000000000,
100000000000100000100000000000000000200000000000,
100000000000100000100000000000100000100000000000,
100000000000100000100000000000000000200000000000,
100000000000100000100000000000000000000000000000,
100000000000100000100000100000000000100000100000,
000000000000000000000000000000000000000000000000,
100000000000200000000000000000000000200000000000,
100000000000200000000000000000000000200000000000,
100000000000000000000000100000100000100000100000,
000000000000000000000000000000000000000000000000,
100000000000200000000000000000000000200000000000,
100000000000200000000000000000000000200000000000,
100000000000100000100000000000100000100000000000,
500000000000000000000000000000000000000000000000,
000000000000000008000000000000000000000000000000,
#GOGOSTART
100000000000000000100100000000000000200000000000,
100000000000000000100000000000000000100000000000,
100000000000000000100100000000000000200000000000,
100000000000200000200000000000000000000000000000,
100000000000000000100100000000000000200000000000,
100000000000000000100000000000000000100000000000,
100000000000000000500000000000000008000000000000,
100000000100000000100000000000000000300000000000,
#GOGOEND
#END
COURSE:Easy
LEVEL:3
SCOREINIT:1080
SCOREDIFF:570
#START
000000000000000000000000000000000000000000000000,
000000000000000000000000000000000000000000000000,
100000000000000000100000000000000000100000000000,
100000000000000000100000000000000000000000000000,
100000000000000000100000000000000000100000000000,
100000000000000000100000000000000000000000000000,
100000000000000000100000000000000000000000000000,
100000000000100000100000000000000000000000000000,
100000000000000000100000000000000000000000000000,
100000000000100000000000100000000000000000000000,
100000000000000000100000000000000000000000000000,
100000000000100000100000000000000000000000000000,
100000000000000000000000100000000000100000000000,
100000000000000000000000000000000000000000000000,
100000000000000000200000000000000000000000000000,
100000000000100000100000000000000000000000000000,
100000000000000000200000000000000000000000000000,
100000000000100000000000100000000000000000000000,
100000000000000000200000000000000000000000000000,
100000000000100000100000000000000000000000000000,
100000000000000000000000100000000000100000000000,
100000000000000000000000000000000000000000000000,
000000000000200000000000000000000000200000000000,
000000000000200000000000000000000000200000000000,
100000000000000000000000100000000000100000100000,
000000000000000000000000000000000000000000000000,
000000000000200000000000000000000000200000000000,
000000000000200000000000000000000000200000000000,
100000000000100000100000000000000000100000000000,
500000000000000000000000000000000000000000000000,
000000000000000008000000000000000000000000000000,
#GOGOSTART
100000000000000000100100000000000000000000000000,
100000000000000000100000000000000000000000000000,
100000000000000000100100000000000000000000000000,
100000000000200000200000000000000000000000000000,
100000000000000000100100000000000000000000000000,
100000000000000000100000000000000000000000000000,
100000000000000000500000000000000008000000000000,
100000000000000000000000000000000000300000000000,
#GOGOEND
#END