Files
2023-01-17 00:45:18 -05:00

516 lines
5.8 KiB
Plaintext

//TJADB Project
TITLE:Egao ni Kanpai!
TITLEJA:笑顔にカンパイ!
SUBTITLE:--Tomoyasu Hotei feat. Hiromi Go/Salaryman NEO
SUBTITLEJA:「サラリーマンNEO」より
BPM:218
WAVE:Egao ni Kanpai!.ogg
OFFSET:-1.526
DEMOSTART:10.340
COURSE:Oni
LEVEL:6
BALLOON:5,5,22,11,11
SCOREINIT:690
SCOREDIFF:183
#START
#GOGOSTART
100200100201,
101200100200,
1404,
0444,
100200100201,
101200100200,
1111,
101101101101,
#GOGOEND
100200101200,
100200101202,
100200100201,
001202100000,
100200100201,
001202100200,
100200100201,
001201101200,
100200101200,
100200101202,
100200100201,
001202100000,
100200100201,
001202100200,
100000100101,
001000000000,
100000100101,
001000000000,
10010050,
000000000000000000000000000008000000000000000000,
30030060,
000000000000000000000000000008000000000000000000,
#GOGOSTART
100200100201,
101200100200,
1404,
0444,
100200100201,
101200100200,
1404,
0444,
100200100201,
101200100200,
1111,
101101101101,
#GOGOEND
100200101200,
100200101202,
100200100201,
001202100000,
100200100201,
001202100200,
100200100201,
001201101200,
100200101200,
100200101202,
100200100201,
001202100000,
100200100201,
001202100200,
100000100101,
001000000000,
100000100101,
001000000000,
10010050,
000000000000000000000000000008000000000000000000,
30030060,
000000000000000000000000000008000000000000000000,
100201100200,
100201100200,
100201001200,
102200102200,
100201100200,
100201100200,
100201001200,
102200102200,
100201100200,
100201100200,
100201001200,
102200102200,
78,
78,
6,
000000000000000000000008000000000000000000000000,
#GOGOSTART
100200100201,
100200100201,
100201100201,
101201100200,
100200100201,
100200100201,
100201100201,
101201100200,
100200100201,
100200100201,
100201100201,
101201100000,
11,
33,
7,
,
#GOGOEND
8,
,
30030070,
0008,
3,
700000000000000000000000000000000000000000000008,
#END
COURSE:Hard
LEVEL:6
BALLOON:19,19,11,22,11,11
SCOREINIT:760
SCOREDIFF:205
#START
#GOGOSTART
1122,
1122,
1404,
0444,
1122,
1122,
7,
0008,
#GOGOEND
100200100201,
0212,
100200100201,
0210,
100200100201,
0212,
100200100201,
001100100000,
100200100201,
0212,
100200100201,
0210,
100200100201,
0212,
100100100101,
001000000000,
100100100101,
001000000000,
10010040,
000000000000000000000000000008000000000000000000,
30030060,
000000000000000000000000000008000000000000000000,
#GOGOSTART
1212,
1212,
1404,
0444,
1212,
1212,
1404,
0444,
1212,
1212,
7,
0008,
#GOGOEND
100200100201,
0212,
100200100201,
0210,
100200100201,
0212,
100200100201,
001100100000,
100200100201,
0212,
100200100201,
0210,
100200100201,
0212,
100100100101,
001000000000,
100100100101,
001000000000,
10010050,
000000000000000000000000000008000000000000000000,
30030060,
000000000000000000000000000008000000000000000000,
1121,
1121,
1120,
102200102200,
1121,
1121,
1120,
102200102200,
1121,
1121,
1120,
102200102200,
3,
3,
9,
8,
#GOGOSTART
1215,
000000000000000000000000000008000000000000000000,,
100200102200,
100200102200,
1215,
000000000000000000000000000008000000000000000000,
100200102200,
100200102200,
1215,
000000000000000000000000000008000000000000000000,
100200102200,
100200102200,
11,
33,
9,
,
8,
,
30030070,
0008,
3,
900000000000000000000000000000000000000000000008,
#GOGOEND
#END
COURSE:Normal
LEVEL:4
BALLOON:14,14,8,10,8,8
SCOREINIT:880
SCOREDIFF:280
#START
1011,
1011,
1303,
0300,
1011,
1011,
7,
0008,
#GOGOEND
11,
1110,
500000000000000000000000000000000000000000000008,
,
11,
1110,
11,
1,
11,
1110,
500000000000000000000000000000000000000000000008,
,
11,
1110,
1011,
1,
1011,
1,
30030060,
000000000000000000000008000000000000000000000000,
30030060,
000000000000000000000008000000000000000000000000,
#GOGOSTART
1011,
1011,
1303,
0300,
1011,
1011,
1303,
0300,
1011,
1011,
7,
0008,
#GOGOEND
11,
1110,
500000000000000000000000000000000000000000000008,
,
11,
1110,
1110,
1,
11,
1110,
500000000000000000000000000000000000000000000008,
,
11,
1110,
1011,
1,
1011,
1,
30030060,
000000000000000000000008000000000000000000000000,
30030060,
000000000000000000000008000000000000000000000000,
12,
1120,
12,
1,
12,
1120,
12,
1,
12,
1120,
12,
1,
3,
3,
9,
8,
#GOGOSTART
1115,
000000000000000000000000000008000000000000000000,
1011,
12,
1115,
000000000000000000000000000008000000000000000000,
1011,
12,
1115,
000000000000000000000000000008000000000000000000,
1011,
12,
11,
33,
9,
,
8,
,
3007,
0008,
3,
900000000000000000000000000000000000000000000008,
#END
COURSE:Easy
LEVEL:3
BALLOON:11,11,6,6,6,6
SCOREINIT:860
SCOREDIFF:440
#START
#GOGOSTART
1,
1,
0303,
0300,
1,
1,
7,
0008,
#GOGOEND
1,
11,
500000000000000000000000000000000000000000000008,
,
1,
2,
11,
1,
1,
11,
500000000000000000000000000000000000000000000008,
,
1,
2,
11,
1,
11,
1,
3006,
000000000000000000000008000000000000000000000000,
3006,
000000000000000000000008000000000000000000000000,
#GOGOSTART
1,
1,
0303,
0300,
1,
1,
0303,
0300,
1,
1,
7,
0008,
#GOGOEND
1,
11,
500000000000000000000000000000000000000000000008,
,
1,
2,
11,
1,
1,
11,
500000000000000000000000000000000000000000000008,
,
1,
2,
11,
1,
11,
1,
3006,
000000000000000000000008000000000000000000000000,
3006,
000000000000000000000008000000000000000000000000,
12,
12,
12,
,
12,
12,
12,
,
12,
12,
12,
3,
3,
9,
8,
#GOGOSTART
36,
000000000000000000000000000008000000000000000000,
11,
2,
36,
000000000000000000000000000008000000000000000000,
11,
2,
36,
000000000000000000000000000008000000000000000000,
11,
2,
11,
33,
9,
,
8,
,
3007,
0008,
3,
900000000000000000000000000000000000000000000008,
#END