Files
2023-06-15 19:15:39 -05:00

237 lines
7.4 KiB
Plaintext

//TJADB Project
TITLE:From the Beginning Until Now
TITLEJA:最初から今まで
SUBTITLE:--Ryu/Winter Sonata
SUBTITLEJA:「冬のソナタ」より
BPM:100
WAVE:From the Beginning Until Now.ogg
OFFSET:-3.313
DEMOSTART:58.488
COURSE:Oni
LEVEL:4
#START
#SCROLL 0.5
,
200000000000000100100200,
200000100100000100100100,
200000200100000100100100,
200000200100000100100200,
100000000100000000000000,
000000000000000000100100,
100000000100200000100000,
100000200100000000000000,
100000000100200000100000,
100000200100000200000200,
100000000100200200200000,
100000200100000000000000,
300000000300000100200000,
100000000000000000100100,
100000000100200000100000,
100000200100000000000000,
100000000100200000100000,
100000200100000200000200,
100000000100200200200000,
300000100200000200100000,
100100200200100100200200,
100000000000000000000000,
#GOGOSTART
100100200000200100100000,
100000000100200000000000,
100100200000200100100000,
100000200100000000000000,
100100200000200100100000,
100000000100200200200000,
300000200100000100200000,
500000000000000008000000,
100100200000200100100000,
100000000100200000000000,
100100200000200100100000,
100000000100200000000000,
100100200000200100100000,
100000000200100100200000,
300000200100000100200000,
500000000000000000000008,
#GOGOEND
#END
COURSE:Hard
LEVEL:1
SCOREINIT:1070
SCOREDIFF:340
#START
000000000000000000000000000000100000100000200000,
200000000000000000000000000000100000100000200000,
200000000000100000100000000000000000100000100000,
200000000000200000100000000000000000100000100000,
200000000000200000100000000000100000100000100000,
100000000000000000100000000000000000000000000000,
000000000000000000000000000000000000000000000000,
100000000000000000100000200000000000100000000000,
100000000000200000100000000000000000000000000000,
100000000000000000100000200000000000100000000000,
100000000000200000100000000000000000000000000000,
100000000000000000100000200000200000200000000000,
100000000000200000100000000000000000000000000000,
300000000000000000300000000000100000200000000000,
100000000000000000000000000000000000000000000000,
100000000000000000100000200000000000100000000000,
100000000000200000100000000000000000000000000000,
100000000000000000100000200000000000100000000000,
100000000000200000100000000000000000000000000000,
100000000000000000100000200000200000200000000000,
300000000000300000000000000000200000200000000000,
500000000000000000000000000000800000000000000000,
000000000000000000000000000000000000000000000000,
#GOGOSTART
100000100000200000000000200000100000100000000000,
100000000000000000100000200000000000000000000000,
100000100000200000000000200000100000100000000000,
100000000000200000100000000000000000000000000000,
100000100000200000000000200000100000100000000000,
100000000000000000100000200000000000100000000000,
300000000000000000300000000000000000000000000000,
500000000000000000000000000000800000000000000000,
100000100000200000000000200000100000100000000000,
100000000000000000100000200000000000000000000000,
100000100000200000000000200000100000100000000000,
100000000000200000100000000000000000000000000000,
100000100000200000000000200000100000100000000000,
100000000000000000200000100000100000200000000000,
300000000000000000300000000000000000300000000000,
500000000000000000000000000000000000000000000080,
#GOGOEND
#END
COURSE:Normal
LEVEL:2
SCOREINIT:1170
SCOREDIFF:500
#START
,
100000000000000000000000000000000000000000000000,
200000000000100000100000000000000000000000000000,
100000000000100000100000000000000000000000000000,
100000000000000000000000100000000000000000000000,
100000000000000000100000000000000000000000000000,
000000000000000000000000000000000000100000000000,
100000000000000000100000100000000000000000000000,
100000000000000000200000200000000000000000000000,
100000000000000000100000100000000000000000000000,
100000000000000000200000200000000000000000000000,
100000000000000000100000100000000000000000000000,
100000000000000000200000200000000000000000000000,
100000000000000000100000000000000000000000000000,
100000000000000000000000000000000000000000000000,
100000000000000000100000100000000000000000000000,
100000000000000000100000100000000000200000000000,
100000000000000000000000100000000000100000000000,
100000000000000000100000100000000000200000000000,
100000000000000000100000100000000000000000000000,
100000000000000000100000100000000000200000000000,
500000000000000000000000000000800000000000000000,
000000000000000000000000000000000000000000000000,
#GOGOSTART
100000100000100000000000200000000000200000000000,
100000000000100000000000000000000000000000000000,
100000100000100000000000200000000000200000000000,
100000000000100000000000000000000000000000000000,
200000200000200000000000100000000000100000000000,
200000000000200000000000200000000000000000000000,
300000000000000000300000000000000000000000000000,
500000000000000000000000000000800000000000000000,
100000100000100000000000200000000000200000000000,
100000000000100000000000000000000000000000000000,
100000100000100000000000200000000000200000000000,
100000000000100000000000000000000000000000000000,
200000200000200000000000100000000000100000000000,
200000000000200000000000200000000000000000000000,
300000000000000000300000000000000000000000000000,
500000000000000000000000000000000000000000000008,
#GOGOEND
#END
COURSE:Easy
LEVEL:2
SCOREINIT:1000
SCOREDIFF:700
#START
,
100000000000000000000000000000000000000000000000,
100000000000000000000000100000000000000000000000,
100000000000000000000000000000000000000000000000,
100000000000000000000000000000000000000000000000,
100000000000000000100000000000000000000000000000,
000000000000000000000000000000000000000000000000,
100000000000100000000000000000000000000000000000,
100000000000000000200000000000000000000000000000,
100000000000100000000000000000000000000000000000,
100000000000000000200000000000000000000000000000,
100000000000100000000000000000000000000000000000,
200000000000200000200000000000000000000000000000,
100000000000000000100000000000000000000000000000,
100000000000000000000000000000000000000000000000,
100000000000100000000000000000000000000000000000,
100000000000000000200000000000000000000000000000,
100000000000100000000000000000000000000000000000,
100000000000000000200000000000000000000000000000,
100000000000100000000000000000000000000000000000,
200000000000200000200000000000000000000000000000,
500000000000000000000000000000800000000000000000,
100000000000000000000000100000000000000000000000,
#GOGOSTART
300000000000000000000000300000000000000000000000,
100000000000000000000000000000000000000000000000,
300000000000000000000000300000000000000000000000,
100000000000000000000000000000000000000000000000,
100000000000100000000000200000000000200000000000,
100000000000000000000000200000000000000000000000,
100000000000000000000000100000000000000000000000,
500000000000000000800000000000000000000000000000,
300000000000000000000000300000000000000000000000,
100000000000000000000000000000000000000000000000,
300000000000000000000000300000000000000000000000,
100000000000000000000000000000000000000000000000,
100000000000100000000000200000000000200000000000,
100000000000000000000000200000000000000000000000,
100000000000100000000000000000000000200000000000,
500000000000000000000000000000000000000000000008,
#GOGOEND
#END