Files
2023-01-17 00:45:18 -05:00

414 lines
17 KiB
Plaintext

//TJADB Project
TITLE:Furisodation
TITLEJA:ふりそでーしょん
SUBTITLE:--Kyary Pamyu Pamyu
SUBTITLEJA:きゃりーぱみゅぱみゅ
BPM:200
WAVE:Furisodation.ogg
OFFSET:-1.902
DEMOSTART:70.833
COURSE:Oni
LEVEL:7
BALLOON:8,12
SCOREINIT:510
SCOREDIFF:130
#START
100000000000100000000000200000000000000000300000,
000000000000000000000000100000000000200000000000,
100000000000000000000000000000100000200000100000,
000000100000200000100000000000100000200000500000,
000000000000000000000000000000000000000000000008,
000000000000000000000000200000000000200000000000,
100000000000000000000000000000200000200000100000,
000000200000200000100000200000200000100000200000,
000000500000000000000000000000000000000000000008,
000000000000000000000000100000000000200000000000,
100000000000000000000000000000100000200000100000,
000000100000200000100000000000100000200000100000,
000000500000000000000000000000000000000000000008,
000000000000000000000000200000000000200000000000,
100000000000000000000000000000200000200000100000,
000000200000200000100000200000200000100000600000,
000000000000000000000000000008000000000000300000,
000000300000400000300000000000300000400000300000,
100000200000200000100000200000000000200000100000,
000000200000100000100000200200200000100000100000,
000000200000200000100000200000000000200000100000,
000000200000100000100000200200200000100000100000,
100000200000200000100000200000000000200000100000,
000000200000100000100000200200200000100000100000,
200000200200200000100000000000100000200000500000,
000000000000000000000000000000000000000008000000,
100000200200200000200000100000100000200000100000,
000000200200200000200000200000100000200000100000,
100000200200200000200000100000100000200000100000,
000000200200200000200000200000100000200000000000,
100000200200200000200000100000100000200000100000,
000000200200200000200000200000100000200000100000,
100000200200200000200000100000200000100000300000,
000000300000300000300000000000200200200000200000,
100000200200200000200000100000100000200000100000,
000000200200200000200000200000100000200000100000,
100000200200200000200000100000100000200000100000,
000000200200200000100000200000100000200000000000,
100000200200200000200000100000100000200000100000,
000000200200200000100000200000100000200000100000,
100000200200200000100000200000100000200000700000,
000000000000000000000000800000000000000000000000,
100000000000200000100100100000100000200000100000,
000000100000200000100100100000100000200000000000,
100000000000200000100100100000100000200000100000,
000000100100200000000000100100100000200000000000,
100000000000200000100100100000100000200000100000,
000000100000200000100100100000100000200000000000,
100000000000100000200000000000200000000000500000,
000000000000000000000000000000000008000000000000,
100000000000200000100100100000100000200000100000,
000000100000200000100100100000100000200000000000,
100000000000200000100100100000100000200000100000,
000000100100200000000000100100100000200000000000,
100000000000100000200000000000200000100000200000,
000000100000200000100000200000100000200000000000,
300000000000300000000000300000300000400000400000,
000000000000000000000000100000000000200000000000,
#GOGOSTART
100000100100100000100000200000100000200000200200,
200000100000200000200200200000100000200000200200,
200000100000100100100000200200200000200000100000,
000000100100100000000000100100100000200000200000,
100000100100100000100000200000100000200000200200,
200000100100100000200000100100100000100000200000,
000000700000000000000000000000000000000000000000,
800000000000000000000000100000100000200000200000,
100000100100100000100000200000100000200000200200,
200000100000200000200200200000100000200000200200,
200000100000100100100000200200200000200000100000,
000000100100100000000000100100100000200000200000,
100000100100100000100000200000100000200000200200,
200000100000200000200200200000100000100000600000,
000000000000000000000000000008000000000000300000,
000000300000400000300000000000300000400000300000,
#GOGOEND
100000200000200000100000200000000000200000100000,
000000200000100000100000200000200200100000100000,
000000200000200000100000200000000000200000100000,
000000200000100000100000200000200200100000100000,
100000200000200000100000200000000000200000100000,
000000200000100000100000200000200200100000100000,
200000200200200000100000000000100000200000100000,
000000300000400000300000000000300000400000300000,
#END
COURSE:Hard
LEVEL:6
BALLOON:8,10,10
SCOREINIT:640
SCOREDIFF:160
#START
100000000000100000000000200000000000000000300000,
000000000000000000000000100000000000200000000000,
100000000000000000000000000000100000200000100000,
000000100000200000100000000000100000200000500000,
000000000000000000000000000000000000000000800000,
000000000000000000000000200000000000200000000000,
100000000000000000000000000000200000200000100000,
000000200000200000100000200000200000100000200000,
000000500000000000000000000000000000000000800000,
000000000000000000000000100000000000200000000000,
100000000000000000000000000000100000200000100000,
000000100000200000100000000000100000200000100000,
000000500000000000000000000000000000000000800000,
000000000000000000000000200000000000200000000000,
100000000000000000000000000000200000200000100000,
000000200000200000100000200000200000100000600000,
000000000000000000000000000000000000800000000000,
000000400000400000400000000000300000300000300000,
000000200000000000100000200000000000200000100000,
000000200000000000100000200000000000100000100000,
000000200000000000100000200000000000200000100000,
000000200000000000100000200000000000100000100000,
000000200000000000100000200000000000200000100000,
000000200000000000100000200000000000100000000000,
200000000000200000100000000000100000100000500000,
000000000000000000000000000000800000000000000000,
100000000000200000100000000000100000200000100000,
000000200000100000000000200000000000100000000000,
100000000000200000100000000000100000200000100000,
000000200000100000000000200000000000000000000000,
100000000000200000100000000000100000200000100000,
000000200000100000000000200000000000100000000000,
100000000000200000100000000000100000000000300000,
000000300000300000300000000000200000200000200000,
100000000000200000100000000000100000200000100000,
000000200000100000000000200000000000100000000000,
100000000000200000100000000000100000200000100000,
000000200000100000000000200000000000100000000000,
100000000000200000100000000000100000200000100000,
000000200000100000000000200000000000100000000000,
100000000000200000100000000000100000000000700000,
000000000000000000000000000000800000000000000000,
100000000000200000000000100000100000200000000000,
100000100000200000000000100000000000200000000000,
100000000000200000000000100000100000200000100000,
000000100000200000000000100000100000200000000000,
100000000000200000000000100000100000200000000000,
100000000000200000000000100000100000200000000000,
100000000000200000100000200000100000000000500000,
000000000000000000000000000000800000000000000000,
100000000000200000000000100000100000200000100000,
000000100000200000000000100000100000200000000000,
100000000000200000100000200000100000000000100000,
000000100000200000000000100000100000200000000000,
100000000000200000100000000000100000200000100000,
000000100000200000100000200000100000200000000000,
700000000000000000000000000000000000000000800000,
000000000000000000000000000000000000000000000000,
#GOGOSTART
100000000000100000000000000000100000200000100000,
000000100000200000100000000000100000200000500000,
000000000000000000000000000000000000000000800000,
000000000000000000000000200000000000200000000000,
100000000000200000200000000000100000200000200000,
000000100000200000200000100000200000200000100000,
000000700000000000000000000000000000000000000000,
000000800000000000000000100000000000200000000000,
100000000000100000000000000000100000200000100000,
000000100000200000100000000000100000200000100000,
000000500000000000000000000000000000000000800000,
000000000000000000000000200000000000200000000000,
100000000000200000200000000000100000200000200000,
000000100000200000200000100000200000200000600000,
000000000000000000000000000000000000800000000000,
000000400000400000400000000000300000300000300000,
#GOGOEND
000000200000000000100000200000000000200000100000,
000000200000000000100000200000000000100000100000,
000000200000000000100000200000000000200000100000,
000000200000000000100000200000000000100000100000,
000000200000000000100000200000000000200000100000,
000000200000000000100000200000000000100000100000,
200000000000200000100000000000100000100000100000,
000000400000400000400000000000300000300000300000,
#END
COURSE:Normal
LEVEL:5
BALLOON:8,8,8
SCOREINIT:950
SCOREDIFF:240
#START
#SCROLL 0.8
000000000000000000000000000000000000000000000000,
000000000000000000000000000000000000000000000000,
100000000000000000000000000000100000100000100000,
000000100000100000100000000000100000100000500000,
000000000000000000000000000000000000000000800000,
000000000000000000000000000000000000000000000000,
200000000000000000000000000000200000200000200000,
000000200000200000000000200000200000000000500000,
000000000000000000000000000000000000000000800000,
000000000000000000000000100000000000100000000000,
100000000000000000000000000000100000100000100000,
000000100000100000100000000000100000100000500000,
000000000000000000000000000000000000000000800000,
000000000000000000000000200000000000200000000000,
200000000000000000000000000000200000200000200000,
000000200000200000000000200000200000000000600000,
000000000000000000000000800000000000000000300000,
000000000000000000000000000000000000000000000000,
100000000000000000100000100000000000000000000000,
000000100000100000000000100000000000000000000000,
100000000000000000100000100000000000000000000000,
000000100000100000000000100000000000000000000000,
200000000000000000200000200000000000000000000000,
000000200000200000000000200000000000000000000000,
100000000000100000100000000000100000100000500000,
000000000000000000000000000000800000000000000000,
100000000000100000000000000000000000000000100000,
000000000000000000000000000000000000100000000000,
100000000000100000000000000000000000000000100000,
000000000000000000000000000000000000000000000000,
100000000000100000000000000000000000000000200000,
000000000000000000000000000000000000100000000000,
100000000000100000000000000000100000000000500000,
000000000000000000000000000000800000000000000000,
200000000000200000000000000000000000000000200000,
000000000000000000000000000000000000200000000000,
200000000000200000000000000000000000000000200000,
000000000000000000000000000000000000000000000000,
100000000000100000000000000000000000000000200000,
000000000000000000000000000000000000100000000000,
700000000000000000000000000000000000000000800000,
000000000000000000000000000000000000000000000000,
100000000000000000000000100000000000100000000000,
100000000000000000000000100000000000000000000000,
100000000000100000000000100000000000000000300000,
000000000000000000000000000000000000000000000000,
200000000000000000000000200000000000200000000000,
200000000000000000000000200000000000000000000000,
200000000000200000000000200000000000000000500000,
000000000000000000000000000000800000000000000000,
100000000000100000000000100000000000000000300000,
000000000000000000000000200000000000000000000000,
100000000000100000000000100000000000000000300000,
000000000000000000000000000000000000000000000000,
100000000000100000000000100000000000000000300000,
000000000000000000000000100000000000100000000000,
700000000000000000000000000000000000000000800000,
000000000000000000000000000000000000000000000000,
#GOGOSTART
100000000000000000000000000000100000100000100000,
000000100000100000100000000000100000100000500000,
000000000000000000000000000000000000000000800000,
000000000000000000000000200000000000200000000000,
200000000000000000000000000000200000200000200000,
000000200000200000000000200000200000000000700000,
000000000000000000000000000000000000000000000000,
000000800000000000000000000000000000000000800000,
000000000000000000000000100000000000100000000000,
100000000000000000000000000000100000100000100000,
000000100000100000100000000000100000100000500000,
000000000000000000000000000000000000000000800000,
000000000000000000000000200000000000200000000000,
200000000000000000000000000000200000200000200000,
000000200000200000000000200000200000000000600000,
000000000000000000000000800000000000000000300000,
000000000000000000000000000000000000000000000000,
#GOGOEND
100000000000000000100000100000000000000000000000,
000000100000100000000000100000000000000000000000,
100000000000000000100000100000000000000000000000,
000000100000100000000000100000000000000000000000,
200000000000000000200000200000000000000000000000,
000000200000200000000000200000000000000000000000,
300000000000000000300000000000000000300000000000,
000000600000000000000000000000000000000000000008,
#END
COURSE:Easy
LEVEL:3
BALLOON:5,5,6,7,7
SCOREINIT:920
SCOREDIFF:210
#START
#SCROLL 0.8
000000000000000000000000000000000000000000000000,
000000000000000000000000000000000000000000000000,
100000000000000000000000000000000000000000100000,
000000000000000000100000000000000000000000500000,
000000000000000000000000000000000000000000800000,
000000000000000000000000000000000000000000000000,
200000000000000000000000000000000000000000200000,
000000000000000000200000000000000000000000500000,
000000000000000000000000000000000000000000800000,
000000000000000000000000000000000000000000000000,
100000000000000000000000000000000000000000100000,
000000000000000000100000000000000000000000500000,
000000000000000000000000000000000000000000800000,
000000000000000000000000000000000000000000000000,
200000000000000000000000000000000000000000200000,
000000000000000000200000000000000000000000700000,
000000000000000000000000000000000000000000000000,
000000500000000000000000000000000000000000800000,
000000000000000000000000000000000000000000000000,
100000000000000000000000100000000000000000000000,
000000000000100000000000100000000000000000000000,
100000000000000000000000100000000000000000000000,
000000000000100000000000100000000000000000000000,
100000000000000000000000100000000000000000000000,
000000000000200000000000200000000000000000000000,
100000000000000000000000100000000000000000500000,
000000000000000000000000800000000000000000000000,
100000000000100000000000000000000000000000100000,
000000000000000000000000000000000000000000000000,
100000000000100000000000000000000000000000100000,
000000000000000000000000000000000000000000000000,
200000000000200000000000000000000000000000200000,
000000000000000000000000000000000000000000000000,
100000000000100000000000000000000000000000300000,
000000000000000000000000000000000000000000000000,
200000000000200000000000000000000000000000200000,
000000000000000000000000000000000000000000000000,
200000000000200000000000000000000000000000200000,
000000000000000000000000000000000000000000000000,
100000000000100000000000000000000000000000100000,
000000000000000000000000000000000000000000000000,
700000000000000000000000000000000000000000800000,
000000000000000000000000000000000000000000000000,
100000000000000000000000100000000000000000000000,
100000000000100000000000100000000000000000000000,
100000000000100000000000100000000000000000300000,
000000000000000000000000000000000000000000000000,
200000000000000000000000200000000000000000000000,
200000000000200000000000200000000000000000000000,
200000000000200000000000200000000000000000500000,
000000000000000000000000800000000000000000000000,
100000000000000000000000100000000000000000000000,
100000000000100000000000100000000000000000000000,
100000000000100000000000100000000000000000300000,
000000000000000000000000000000000000000000000000,
100000000000100000000000100000000000000000300000,
000000000000000000000000100000000000100000000000,
700000000000000000000000000000000000000000800000,
000000000000000000000000000000000000000000000000,
#GOGOSTART
300000000000000000000000000000000000000000300000,
000000000000000000300000000000000000000000600000,
000000000000000000000000000000000000000000800000,
000000000000000000000000000000000000000000000000,
200000000000000000000000000000000000000000200000,
000000000000000000200000000000000000000000700000,
000000000000000000000000000000000000000000000000,
000000700000000000000000000000000000000000800000,
000000000000000000000000000000000000000000000000,
300000000000000000000000000000000000000000300000,
000000000000000000300000000000000000000000600000,
000000000000000000000000000000000000000000800000,
000000000000000000000000000000000000000000000000,
200000000000000000000000000000000000000000200000,
000000000000000000200000000000000000000000700000,
000000000000000000000000000000000000000000000000,
000000700000000000000000000000000000000000800000,
000000000000000000000000000000000000000000000000,
#GOGOEND
100000000000000000000000100000000000000000000000,
000000000000100000000000100000000000000000000000,
100000000000000000000000100000000000000000000000,
000000000000100000000000100000000000000000000000,
100000000000000000000000100000000000000000000000,
000000000000200000000000200000000000000000000000,
300000000000000000000000300000000000000000000000,
000000600000000000000000000000000000000000000008,
#END