forked from ESE/ESE
424 lines
13 KiB
Plaintext
424 lines
13 KiB
Plaintext
//TJADB Project
|
||
TITLE:Go Go Yuureisen
|
||
TITLEJA:ゴーゴー幽霊船
|
||
SUBTITLE:--Kenshi Yonezu
|
||
SUBTITLEJA:ハチ / 米津玄師
|
||
BPM:180
|
||
WAVE:Go Go Yuureisen.ogg
|
||
OFFSET:-1.657
|
||
DEMOSTART:78.797
|
||
|
||
COURSE:Oni
|
||
LEVEL:7
|
||
BALLOON:10,10
|
||
SCOREINIT:570
|
||
SCOREDIFF:130
|
||
|
||
|
||
#START
|
||
|
||
|
||
100000200000200000100200000000100000200000000000,
|
||
100000200000200000200200000000200000200000000000,
|
||
100000200000200000100200000000100000200000000000,
|
||
100000200000200000200200000000200000200000000000,
|
||
100000200000200000100200000000100000200000000000,
|
||
100000200000200000200200000000200000200000000000,
|
||
100000200000200000100200000000100000200000000000,
|
||
100000200000200000200200000000200000200000000000,
|
||
#MEASURE 3/4
|
||
300000000000300000000000300000000000,
|
||
|
||
#GOGOSTART
|
||
#MEASURE 4/4
|
||
300000100000000000100000000000100000200200100000,
|
||
100000000100200000100000000000200000100000000000,
|
||
100000100000000000100000000000100000200200100000,
|
||
100000000100200000100000000000200000100000000000,
|
||
100000100000000000100000000000100000200200100000,
|
||
100000000100200000100000000000200000100000000000,
|
||
100000100000000000100000000000100000200200100000,
|
||
100000000100200000100000000000200000100100100000,
|
||
|
||
#GOGOEND
|
||
100000000000200000100000000000200000000000200000,
|
||
100000000000200000100000000000200000000000200000,
|
||
100000000000200000100000100000100100200000100000,
|
||
100000100000000000100000000000100000100100100000,
|
||
100000000000200000100000000000200000000000200000,
|
||
100000000000200000100000000000200000000000200000,
|
||
100000000000200000100000100000100100200000100000,
|
||
100000100100200000500000000000000008000000000000,
|
||
300000000000200000100000000000200200200000200000,
|
||
100000000000200000100000000000200200200000200000,
|
||
100000000000200000100000100000100100200000100000,
|
||
100000100000000000100000000000100000100100100000,
|
||
100000000000200000100000000000200200200000200000,
|
||
100000000000200000100000000000200200200000200000,
|
||
100000000000200000100000100000100100200000100000,
|
||
100000100100200000700000000000000000000000000000,
|
||
#MEASURE 2/4
|
||
800000000000000000000000,
|
||
#MEASURE 4/4
|
||
300000000000200000100000000000100100200000200000,
|
||
100000000000200000100000000000100100200000200000,
|
||
100000000000200000100000100000100100200000100000,
|
||
100000100000000000100000000000100000200200200000,
|
||
100000000000200000100000000000100100200000200000,
|
||
100000000000200000100000000000100100200000200000,
|
||
100000000000200000100000100000100100200000100000,
|
||
100000100100200000500000000000000008000000000000,
|
||
300000000000200000100000000000200000200000200200,
|
||
100000000000200000100000000000200000200000200200,
|
||
100000000000200000100000100000100100200000100000,
|
||
100000100000000000100000000000100000200200200000,
|
||
100000000000200000100000000000200000200000200200,
|
||
100000000000200000100000000000200000200000200200,
|
||
100000000000200000100000100000100100200000100000,
|
||
100000100100200000500000000000000008000000000000,
|
||
100000000000000000000000100000000000000000000000,
|
||
100000000000100000000000100000000000000000000000,
|
||
100000000000000000000000100000000000000000000000,
|
||
700000000000000000000000000000800000000000000000,
|
||
100000000000000000000000100000000000000000000000,
|
||
100000000000100000000000100000000000000000000000,
|
||
100000000000200000000200100000000000200000000200,
|
||
100000000000100000000000300000400000400000400000,
|
||
000000000000000000000000000000300000300000300000,
|
||
|
||
#GOGOSTART
|
||
300000200200100000100000000000100000100100200000,
|
||
200200100100100000200200100100100000000000100000,
|
||
000000100000100000100100100000100100200000200000,
|
||
100000100100200000100100200000200000000000000000,
|
||
100000200200100000100000000000100000100100200000,
|
||
200200100100100000200200100100100000000000100000,
|
||
000000100000100000100100100000100100200000100000,
|
||
000000200000200000100000500000000008000000000000,
|
||
300000200200100000100000000000100000100100200000,
|
||
200200100100100000200200100100100000000000100000,
|
||
000000200000200000100100100000100100200000200000,
|
||
100000100100200000100100200000200000000000000000,
|
||
100000200200100000100000000000100000100100200000,
|
||
200200100100100000200200100100100000000000100000,
|
||
000000100000100000100100100000100100200000200000,
|
||
000000200000200000100000500000000008000000100000,
|
||
|
||
#GOGOEND
|
||
000000100000200000100000100000100000100000200000,
|
||
000000200000100000100000100000400000400000000000,
|
||
300000000000000000000000000000000000000000000000,
|
||
|
||
|
||
#END
|
||
|
||
|
||
COURSE:Hard
|
||
LEVEL:6
|
||
BALLOON:8,7
|
||
SCOREINIT:700
|
||
SCOREDIFF:170
|
||
|
||
|
||
#START
|
||
|
||
|
||
100000000000000000000000000000000000100000000000,
|
||
100000000000000000000000000000000000000000000000,
|
||
100000000000000000000000000000000000100000000000,
|
||
100000000000000000000000000000000000000000000000,
|
||
100000000000000000000000000000000000100000000000,
|
||
100000000000000000000000000000000000000000000000,
|
||
100000000000000000000000000000000000100000000000,
|
||
100000000000000000000000000000000000000000000000,
|
||
#MEASURE 3/4
|
||
300000000000300000000000300000000000,
|
||
000000000000000000000000000000000000,
|
||
#MEASURE 4/4
|
||
#GOGOSTART
|
||
300000100000000000100000000000100100100000000000,
|
||
100000000000100000100000000000100000100000000000,
|
||
100000100000000000100000000000100100100000000000,
|
||
100000000000200000200000000000200000200000000000,
|
||
100000100000000000100000000000100100100000000000,
|
||
100000000000100000100000000000100000100000000000,
|
||
100000100000000000100000000000100100100000000000,
|
||
100000000000200000200000000000200000200000000000,
|
||
#GOGOEND
|
||
300000000000100000100000000000000000200000000000,
|
||
100000000000100000100000000000000000200000000000,
|
||
100000000000100000100000200000000000200000200000,
|
||
500000000000000000000000000080000000000000000000,
|
||
100000000000100000100000000000000000200000000000,
|
||
100000000000100000100000000000000000200000000000,
|
||
100000000000100000100000200000000000200000200000,
|
||
500000000000000000000000000080000000000000000000,
|
||
300000000000100000100000000000200000200000000000,
|
||
100000000000100000100000000000200000200000000000,
|
||
100000000000100000100000200000000000200000200000,
|
||
500000000000000000000000000080000000000000000000,
|
||
100000000000100000100000000000200000200000000000,
|
||
100000000000100000100000000000200000200000000000,
|
||
100000000000100000100000200000000000200000200000,
|
||
700000000000000000000000000000800000000000000000,
|
||
#MEASURE 2/4
|
||
000000000000000000000000,
|
||
#MEASURE 4/4
|
||
300000000000200000100000000000000000200000000000,
|
||
100000000000200000100000000000000000200000000000,
|
||
100000000000100000100000200000000000200000200000,
|
||
500000000000000000000000000080000000000000000000,
|
||
100000000000200000100000000000000000200000000000,
|
||
100000000000200000100000000000000000200000000000,
|
||
100000000000100000100000200000000000200000200000,
|
||
500000000000000000000000000080000000000000000000,
|
||
300000000000200000100000000000200200200000000000,
|
||
100000000000200000100000000000200200200000000000,
|
||
100000000000100000100000200000000000200000200000,
|
||
500000000000000000000000000080000000000000000000,
|
||
100000000000200000100000000000200200200000000000,
|
||
100000000000200000100000000000200200200000000000,
|
||
100000000000100000100000200000000000200000200000,
|
||
500000000000000000000000000080000000000000000000,
|
||
100000000000000000000000100000000000000000000000,
|
||
100000000000100000000000100000000000000000000000,
|
||
100000000000000000000000100000000000000000000000,
|
||
700000000000000000800000000000000000000000000000,
|
||
100000000000000000000000100000000000000000000000,
|
||
100000000000100000000000100000000000000000000000,
|
||
300000000000000000000000300000000000000000000000,
|
||
300000000000300000000000300000000000300000000000,
|
||
000000000000000000000000000000300000300000300000,
|
||
#GOGOSTART
|
||
300000000000200000100000000000100100100000100000,
|
||
100000000000100000100000200000200000000000100000,
|
||
000000200000200000100000100000000000100000100000,
|
||
100000000000100000100000200000200000000000000000,
|
||
100000000000200000100000000000100100100000100000,
|
||
100000000000100000100000200000200000000000100000,
|
||
000000100000100000000000100100100000100000100000,
|
||
000000100100100000100000500000000080000000000000,
|
||
300000000000200000100000000000100100100000100000,
|
||
100000000000100000100000200000200000000000100000,
|
||
000000200000200000100000100000000000100000100000,
|
||
100000000000100000100000200000200000000000000000,
|
||
100000000000200000100000000000100100100000100000,
|
||
100000000000100000100000200000200000000000100000,
|
||
000000100000100000000000100100100000100000100000,
|
||
000000100100100000100000500000000080000000100000,
|
||
#GOGOEND
|
||
000000100000200000000000100000100000200000200000,
|
||
000000100000100000100000100000400000400000000000,
|
||
300000000000000000000000000000000000000000000000,
|
||
|
||
|
||
#END
|
||
|
||
|
||
COURSE:Normal
|
||
LEVEL:4
|
||
BALLOON:8,5,7,5
|
||
SCOREINIT:800
|
||
SCOREDIFF:210
|
||
|
||
|
||
#START
|
||
|
||
|
||
100000000000000000000000000000000000100000000000,
|
||
100000000000000000000000000000000000000000000000,
|
||
100000000000000000000000000000000000100000000000,
|
||
100000000000000000000000000000000000000000000000,
|
||
100000000000000000000000000000000000100000000000,
|
||
100000000000000000000000000000000000000000000000,
|
||
100000000000000000000000000000000000100000000000,
|
||
100000000000000000000000000000000000000000000000,
|
||
#MEASURE 3/4
|
||
300000000000300000000000300000000000,
|
||
000000000000000000000000000000000000,
|
||
#MEASURE 4/4
|
||
#GOGOSTART
|
||
300000000000100000100000000000000000000000000000,
|
||
100000000000100000100000000000000000000000000000,
|
||
100000000000100000100000000000000000000000000000,
|
||
100000000000100000100000000000000000000000000000,
|
||
200000000000200000200000000000000000000000000000,
|
||
200000000000200000200000000000000000000000000000,
|
||
200000000000200000200000000000000000000000000000,
|
||
200000000000200000200000000000000000000000000000,
|
||
#GOGOEND
|
||
300000000000000000000000100000000000000000000000,
|
||
200000000000000000000000200000000000000000000000,
|
||
100000000000100000000000200000000000200000000000,
|
||
500000000000000000000000000000000080000000000000,
|
||
100000000000000000000000100000000000000000000000,
|
||
200000000000000000000000200000000000000000000000,
|
||
100000000000100000000000200000000000200000000000,
|
||
500000000000000000000000000080000000000000000000,
|
||
100000000000100000100000000000000000000000000000,
|
||
100000000000100000100000000000000000000000000000,
|
||
100000000000100000000000200000000000200000000000,
|
||
500000000000000000000000000080000000000000000000,
|
||
100000000000100000100000000000000000000000000000,
|
||
100000000000100000100000000000000000000000000000,
|
||
100000000000100000000000200000000000200000000000,
|
||
700000000000000000000000000000800000000000000000,
|
||
#MEASURE 2/4
|
||
000000000000000000000000,
|
||
000000000000000000000000,
|
||
#MEASURE 4/4
|
||
200000000000000000000000200000000000000000000000,
|
||
100000000000000000000000100000000000000000000000,
|
||
200000000000200000000000100000000000100000000000,
|
||
500000000000000000000000000080000000000000000000,
|
||
200000000000000000000000200000000000000000000000,
|
||
100000000000000000000000100000000000000000000000,
|
||
200000000000200000000000100000000000100000000000,
|
||
500000000000000000000000000080000000000000000000,
|
||
200000000000200000200000000000000000000000000000,
|
||
200000000000200000200000000000000000000000000000,
|
||
200000000000200000000000100000000000100000000000,
|
||
500000000000000000000000000080000000000000000000,
|
||
200000000000200000200000000000000000000000000000,
|
||
200000000000200000200000000000000000000000000000,
|
||
200000000000200000000000100000000000100000000000,
|
||
500000000000000000000000000080000000000000000000,
|
||
100000000000000000000000100000000000000000000000,
|
||
100000000000100000000000100000000000000000000000,
|
||
100000000000000000000000100000000000000000000000,
|
||
700000000000000000800000000000000000000000000000,
|
||
100000000000000000000000100000000000000000000000,
|
||
100000000000100000000000100000000000000000000000,
|
||
300000000000000000000000300000000000000000000000,
|
||
700000000000000000000000000000800000000000000000,
|
||
000000000000000000000000000000000000000000000000,
|
||
#GOGOSTART
|
||
300000000000100000000000100000000000000000000000,
|
||
100000000000100000000000100000100000000000000000,
|
||
100000000000100000000000100000000000000000000000,
|
||
100000000000100000000000100000100000000000000000,
|
||
100000000000100000000000100000000000000000000000,
|
||
100000000000100000000000100000100000000000000000,
|
||
100000000000100000000000100000100000100000000000,
|
||
500000000000000000000000000080000000000000000000,
|
||
400000000000200000000000200000000000000000000000,
|
||
200000000000200000000000200000200000000000000000,
|
||
200000000000200000000000200000000000000000000000,
|
||
200000000000200000000000200000200000000000000000,
|
||
200000000000200000000000200000000000000000000000,
|
||
200000000000200000000000200000200000000000000000,
|
||
200000000000200000000000200000200000200000000000,
|
||
700000000000000000800000000000000000000000000000,
|
||
#GOGOEND
|
||
100000000000100000000000100000100000100000000000,
|
||
100000000000100000000000400000400000400000000000,
|
||
300000000000000000000000000000000000000000000000,
|
||
|
||
|
||
#END
|
||
|
||
|
||
COURSE:Easy
|
||
LEVEL:3
|
||
BALLOON:6,4,6,4
|
||
SCOREINIT:760
|
||
SCOREDIFF:210
|
||
|
||
|
||
#START
|
||
|
||
|
||
1,
|
||
1,
|
||
1,
|
||
1,
|
||
1,
|
||
1,
|
||
1,
|
||
1,
|
||
#MEASURE 3/4
|
||
333,
|
||
|
||
#GOGOSTART
|
||
#MEASURE 4/4
|
||
3,
|
||
11,
|
||
1,
|
||
11,
|
||
2,
|
||
22,
|
||
2,
|
||
22,
|
||
|
||
#GOGOEND
|
||
1,
|
||
1,
|
||
11,
|
||
500000000000000000000000000008000000000000000000,
|
||
1,
|
||
1,
|
||
11,
|
||
500000000000000000000000000008000000000000000000,
|
||
2,
|
||
2,
|
||
22,
|
||
500000000000000000000000000008000000000000000000,
|
||
2,
|
||
2,
|
||
22,
|
||
7008,
|
||
#MEASURE 2/4
|
||
,
|
||
#MEASURE 4/4
|
||
1100,
|
||
1100,
|
||
11,
|
||
500000000000000000000000000008000000000000000000,
|
||
1100,
|
||
1100,
|
||
11,
|
||
500000000000000000000000000008000000000000000000,
|
||
2200,
|
||
2200,
|
||
22,
|
||
500000000000000000000000000008000000000000000000,
|
||
2200,
|
||
2200,
|
||
22,
|
||
500000000000000000000000000008000000000000000000,
|
||
11,
|
||
22,
|
||
11,
|
||
78,
|
||
11,
|
||
1110,
|
||
33,
|
||
7008,
|
||
,
|
||
|
||
#GOGOSTART
|
||
33,
|
||
1110,
|
||
1110,
|
||
1110,
|
||
44,
|
||
2220,
|
||
2220,
|
||
500000000000000000000000000008000000000000000000,
|
||
33,
|
||
1110,
|
||
1110,
|
||
44,
|
||
2220,
|
||
2220,
|
||
78,
|
||
|
||
#GOGOEND
|
||
1110,
|
||
1110,
|
||
3,
|
||
|
||
|
||
#END
|
||
|