Files
2023-06-15 19:00:23 -05:00

281 lines
11 KiB
Plaintext

//TJADB Project
TITLE:Gorilla
TITLEJA:吼
SUBTITLE:--Magic Power
BPM:135
WAVE:Gorilla.ogg
OFFSET:-7.218
DEMOSTART:67.649
COURSE:Oni
LEVEL:7
BALLOON:18
SCOREINIT:710
SCOREDIFF:193
#START
100000000000100000000000100000000200100000200000,
100000000000100000000000100000000200100000200000,
100000000000100000000000100000000200100000200000,
100000000000100000000000100000000200100000200000,
200000000100200000100000200000000100200000100000,
200000000100200000100000200000000100200000100000,
200000000100200000100000200000000100200000100000,
200000000100200000100000100100000100100000100000,
100000000200100000200000100000000200100000200000,
100000000200100000200000100000000200100000200000,
100000000200100000200000100000000200100000200000,
100000000200100000200000100000000200100000200000,
200000000100200000100000200000000100200000100000,
200000000100200000100000200000000100200000100000,
200000000100200000100000200000000100200000100000,
500000000000000008000000000000100000100000100000,
100000200200100000200200100000000100200000100000,
000000100100200000100100100000000100200000100000,
100000200200100000200200100000000100200000100000,
100000200200100000200200100000000100200000100000,
100000200200100000200200100000000100200000100000,
000000100100200000100100100000000100200000100000,
100000200200100000200200100000000100200000100000,
500000000000000008000000000000100000100000100000,
100000200200100000100100200100000100200000100000,
000000200200100000100100200100000100200000000000,
500000000000000000000000000000000000000000000000,
000000000000000008000000000000100000100000100000,
200000100100200000100100200000000200100000200000,
000000100100200000100100200000000200100000200000,
100000200200100000100100200100000200100000100000,
100000100100100000100100100000100100100000100100,
100100100100100100100100100100100100100100100100,
000000300000400000300000400000000000400000000000,
#GOGOSTART
100000100000200200000000200000100000100000100000,
100000200200100000200000100000200200100000000000,
100000100000200200000000200000100000100000100000,
100000200200100000200000100000300000000000000000,
300000400000300000400000300000400000300000400000,
100000200200100000100000200200200200100000000000,
300000400000300000400000300000400000300000400000,
100000200200100000100000100000100000200200100000,
100000000000100000100000200200200000100100200000,
100000200000100100200000100000200000200000000000,
100000000000100000100000200000700000000000000000,
000000000000000000000000000000000000800000000000,
300000400000300000400000300000400000300000400000,
100000200200100000100000200200200200100000000000,
300000400000300000400000300000400000300000400000,
100000200200100000100000100000100000200200100000,
#GOGOEND
300000000000000000000000000000000000000000000000,
#END
COURSE:Hard
LEVEL:6
BALLOON:16,14
SCOREINIT:740
SCOREDIFF:208
#START
100000000000100000000000100000000100000000100000,
100000000000100000000000100000000100000000100000,
100000000000100000000000100000000100000000100000,
100000000000100000000000100000000100000000100000,
200000000000200000000000200000000200000000200000,
200000000000200000000000200000000200000000200000,
200000000000200000000000200000000200000000200000,
200000000000200000000000200000000200000000200000,
100000000000100000000000100000000200100000200000,
100000000000100000000000100000000200100000200000,
100000000000100000000000100000000200100000200000,
100000000000100000000000100000000200100000200000,
200000000100200000100000200000000100200000100000,
200000000100200000100000200000000100200000100000,
200000000100200000100000200000000100200000100000,
500000000000000000000800000000000000000000000000,
100000200000100000200000100000000100200000100000,
000000100000200000100000100000000100200000100000,
100000200000100000200000100000000100200000100000,
100000200000100000200000100000000100200000100000,
100000200000100000200000100000000100200000100000,
000000100000200000100000100000000100200000100000,
100000200000100000200000100000000100200000100000,
500000000000000000000800000000000000000000000000,
100000200000100000200000100000000100200000100000,
000000200000100000200000100000000100200000000000,
500000000000000000000000000000000000000000000000,
000000000000000000000800000000000000000000000000,
200000100000200000100000200000000200100000200000,
000000100000200000100000200000000200100000000000,
100000200000100000200000100000000100200000100000,
100000100100100000100100100000100100100000100100,
700000000000000000000000000000000000000000000800,
000000000000000000000000000000000000000000000000,
#GOGOSTART
100000000000200000000000200000100000100000100000,
100000200000100000200000100000000000000000000000,
100000000000200000000000200000100000100000100000,
100000200000100000200000100000000000000000000000,
300000400000300000400000300000400000300000400000,
100000200000100000100000200000200200200000000000,
300000400000300000400000300000400000300000400000,
100000200000100100100000200200200000100100100000,
100000000000100000100000000000200000100000200000,
100000200000100000200000100000200000200000000000,
100000000000100000100000000000700000000000000000,
000000000000000000000000000000000800000000000000,
300000400000300000400000300000400000300000400000,
100000200000100000100000200000200200200000000000,
300000400000300000400000300000400000300000400000,
100000200000100100100000200200200000100100100000,
#GOGOEND
300000000000000000000000000000000000000000000000,
#END
COURSE:Normal
LEVEL:5
BALLOON:31,10
SCOREINIT:1020
SCOREDIFF:340
#START
100000000000100000000000100000000100000000000000,
100000000000100000000000100000000100000000000000,
100000000000100000000000100000000100000000500000,
000000000000000000000800000000000000000000000000,
200000000000200000000000200000000200000000000000,
200000000000200000000000200000000200000000000000,
200000000000200000000000200000000200000000500000,
000000000000000000000800000000000000000000000000,
100000000000100000000000100000000100000000100000,
100000000000100000000000100000000100000000100000,
100000000000100000000000100000000100000000500000,
000000000000000000000800000000000000000000000000,
200000000000200000000000200000000200000000200000,
200000000000200000000000200000000200000000200000,
200000000000200000000000200000000200000000500000,
000000000000000000000800000000000000000000000000,
100000000000100000000000100000000100000000100000,
000000100000000000100000100000000100000000100000,
100000000000100000000000100000000100000000500000,
000000000000000000000800000000000000000000000000,
200000000000200000000000200000000200000000200000,
000000200000000000200000200000000200000000200000,
200000000000200000000000200000000200000000500000,
000000000000000000000800000000000000000000000000,
100000000000100000000000100000000100000000100000,
000000100000100000000000100000000000100000000000,
500000000000000000000000000000000000000000000000,
000000000000000000000800000000000000000000000000,
200000000000200000000000200000000200000000200000,
000000200000200000000000200000000000200000000000,
900000000000000000000000000000000000000000000000,
000000000000000000000000000000000000000000000000,
000000000000000000000000000000000000000000000000,
800000000000000000000000000000000000000000000000,
#GOGOSTART
100000000000000000000000100000100000100000000000,
100000000000100000100000200000000000000000000000,
100000000000000000000000100000100000100000000000,
100000000000100000100000000000000000000000000000,
300000400000300000000000300000400000300000000000,
100000000000100000100000000000000000000000000000,
300000400000300000000000300000400000300000000000,
100000000000100000100000000000000000000000000000,
500000000000000800000000000000200000000000200000,
000000200000000000200000000000200000000000000000,
500000000000000800000000000000700000000000000000,
000000000000000000000000000000000800000000000000,
300000400000300000000000300000400000300000000000,
100000000000100000100000000000000000000000000000,
300000400000300000000000300000400000300000000000,
100000000000100000100000000000000000000000000000,
#GOGOEND
300000000000000000000000000000000000000000000000,
#END
COURSE:Easy
LEVEL:3
BALLOON:15
SCOREINIT:800
SCOREDIFF:370
#START
100000000000100000000000100000000000000000000000,
100000000000100000000000100000000000000000000000,
100000000000100000000000100000000000000000500000,
000000000000000000800000000000000000000000000000,
200000000000200000000000200000000000000000000000,
200000000000200000000000200000000000000000000000,
200000000000200000000000200000000000000000500000,
000000000000000000800000000000000000000000000000,
100000000000100000000000100000000000000000000000,
100000000000100000000000100000000000000000000000,
100000000000100000000000100000000000000000500000,
000000000000000000800000000000000000000000000000,
200000000000200000000000200000000000000000000000,
200000000000200000000000200000000000000000000000,
200000000000200000000000200000000000000000500000,
000000000000000000800000000000000000000000000000,
100000000000100000000000100000000000000000100000,
000000100000000000100000000000000000000000000000,
500000000000000000000000000000000000000000000000,
000000000000000000800000000000000000000000000000,
200000000000200000000000200000000000000000200000,
000000200000000000200000000000000000000000000000,
500000000000000000000000000000000000000000000000,
000000000000000000800000000000000000000000000000,
100000000000100000000000100000000000000000100000,
000000000000100000000000100000000000100000000000,
500000000000000000000000000000000000000000000000,
000000000000000000800000000000000000000000000000,
200000000000200000000000200000000000000000200000,
000000000000200000000000200000000000200000000000,
900000000000000000000000000000000000000000000000,
000000000000000000000000000000000000000000000000,
000000000000000000000000000000000000000000000000,
800000000000000000000000000000000000000000000000,
#GOGOSTART
100000000000000000000000100000000000100000000000,
000000000000100000000000100000000000000000000000,
200000000000000000000000200000000000200000000000,
000000000000200000000000200000000000000000000000,
300000000000300000000000300000000000300000000000,
100000000000100000000000200000000000000000000000,
300000000000300000000000300000000000300000000000,
100000000000100000000000200000000000000000000000,
100000000000000000000000100000000000100000000000,
000000000000100000000000100000000000000000000000,
200000000000000000000000200000000000200000000000,
000000000000200000000000200000000000000000000000,
300000000000300000000000300000000000300000000000,
100000000000100000000000200000000000000000000000,
300000000000300000000000300000000000300000000000,
100000000000100000000000200000000000000000000000,
#GOGOEND
300000000000000000000000000000000000000000000000,
#END