forked from ESE/ESE
233 lines
3.6 KiB
Plaintext
233 lines
3.6 KiB
Plaintext
//TJADB Project
|
|
TITLE:Haru wo Tsugeru
|
|
TITLEJA:春を告げる
|
|
SUBTITLE:--yama
|
|
SUBTITLEJA:yama
|
|
BPM:120
|
|
WAVE:Haru wo Tsugeru.ogg
|
|
OFFSET:-2.134
|
|
DEMOSTART:65.562
|
|
|
|
COURSE:Oni
|
|
LEVEL:8
|
|
SCOREINIT:810
|
|
SCOREDIFF:225
|
|
|
|
|
|
#START
|
|
|
|
|
|
#SCROLL 1.5
|
|
100100201201100100000000,
|
|
100101201201000000200000,
|
|
100100201201100200200000,
|
|
100100201201200200200000,
|
|
100200101201102200100002,
|
|
101200101201100200100002,
|
|
102201101201100200100002,
|
|
202202202202000000200000,
|
|
100002100200100002101101,
|
|
100002100200100200200201,
|
|
100002100200100002101102,
|
|
100002100200100200202201,
|
|
100002100200100002101202,
|
|
100002100200100200200201,
|
|
100002100200100002102202,
|
|
100002100200100200202201,
|
|
101102200202200100200000,
|
|
101102202002201100200101,
|
|
102200202202200100200001,
|
|
102202202002201100200101,
|
|
100000202202000102202201,
|
|
101100200002201100200100,
|
|
100000202202000102202201,
|
|
101100201101001100200100,
|
|
100000200000100000200200100000200000100000200020,
|
|
1020102210201020,
|
|
100202102202100200100200,
|
|
12121212,
|
|
100202102202100202100200,
|
|
101010101012100000000000,
|
|
20202220,
|
|
100002000100000200200000,
|
|
|
|
#GOGOSTART
|
|
100202100202102202102202,
|
|
100201002200100200202002,
|
|
101202101202100102102202,
|
|
101202101202200200200100,
|
|
100102100202101202102202,
|
|
101200100202100100100202,
|
|
101202101202100100202202,
|
|
102202202202000000100000,
|
|
|
|
#GOGOEND
|
|
4,
|
|
|
|
|
|
#END
|
|
|
|
|
|
COURSE:Hard
|
|
LEVEL:7
|
|
SCOREINIT:890
|
|
SCOREDIFF:270
|
|
|
|
|
|
#START
|
|
|
|
|
|
#SCROLL 1.5
|
|
100100200101100100000000,
|
|
100100201100000000200000,
|
|
100100200101100200200000,
|
|
100100200101100200200000,
|
|
100200100202200200100000,
|
|
100200100202200200100000,
|
|
100200100202200200100000,
|
|
100200202202000000200000,
|
|
100001100200100002200100,
|
|
100001100200100200200000,
|
|
100001100200100002200100,
|
|
100001100200100200200000,
|
|
100001100200100002200100,
|
|
100001100200100200200000,
|
|
100001100200100002200100,
|
|
100001100200100200200000,
|
|
100100200002200100000000,
|
|
100100200001100200000000,
|
|
100100200002200100000000,
|
|
100100200002200100200000,
|
|
100100200000000002200200,
|
|
100100200002200100200100,
|
|
100100200000000002200200,
|
|
100100200000001100200200,
|
|
1000102220001020,
|
|
1000102220001020,
|
|
100000202202200000100200,
|
|
12121212,
|
|
100001101101100200200000,
|
|
111111100000,
|
|
20202220,
|
|
10010220,
|
|
#GOGOSTART
|
|
100100100202200200100000,
|
|
100101001100100000200001,
|
|
101101101101100100100002,
|
|
202202202202200200200000,
|
|
100100100202200200100000,
|
|
101100100202200100100000,
|
|
101100101100100100200000,
|
|
101100202202000000100000,
|
|
#GOGOEND
|
|
4,
|
|
,
|
|
,
|
|
#END
|
|
|
|
COURSE:1
|
|
LEVEL:4
|
|
SCOREINIT:1000
|
|
SCOREDIFF:383
|
|
|
|
#START
|
|
10111100,
|
|
11110020,
|
|
10101110,
|
|
20202220,
|
|
10111100,
|
|
11101000,
|
|
11101000,
|
|
22202020,
|
|
10111010,
|
|
10102220,
|
|
10111010,
|
|
10102220,
|
|
10111010,
|
|
10102220,
|
|
10111010,
|
|
10102220,
|
|
11102200,
|
|
11102200,
|
|
10101100,
|
|
20202220,
|
|
10000022,
|
|
22001111,
|
|
00000022,
|
|
20000011,
|
|
10111011,
|
|
10222011,
|
|
10111010,
|
|
1122,
|
|
00111010,
|
|
500000000000000000000008000000000000000000000000,
|
|
20202220,
|
|
10010020,
|
|
#GOGOSTART
|
|
10111100,
|
|
11110020,
|
|
10101110,
|
|
20202220,
|
|
10111100,
|
|
11101000,
|
|
500000000000000000000008000000000000000000000000,
|
|
500000000000000000000008000000000000100000000000,
|
|
#GOGOEND
|
|
4,
|
|
,
|
|
,
|
|
#END
|
|
|
|
COURSE:0
|
|
LEVEL:3
|
|
SCOREINIT:1120
|
|
SCOREDIFF:825
|
|
|
|
#START
|
|
1110,
|
|
1100,
|
|
1110,
|
|
2220,
|
|
1110,
|
|
1110,
|
|
1100,
|
|
2202,
|
|
0101,
|
|
0111,
|
|
0101,
|
|
0111,
|
|
0101,
|
|
0111,
|
|
0101,
|
|
0111,
|
|
10000100,
|
|
10000100,
|
|
10000100,
|
|
1022,
|
|
2001,
|
|
1011,
|
|
0001,
|
|
1001,
|
|
1011,
|
|
1011,
|
|
1011,
|
|
1111,
|
|
0111,
|
|
500000000000000000000008000000000000000000000000,
|
|
22,
|
|
10010000,
|
|
#GOGOSTART
|
|
1110,
|
|
1100,
|
|
1110,
|
|
2220,
|
|
1110,
|
|
1100,
|
|
500000000000000000000008000000000000000000000000,
|
|
500000000000000000000008000000000000100000000000,
|
|
#GOGOEND
|
|
4,
|
|
,
|
|
,
|
|
#END
|