forked from ESE/ESE
973 lines
15 KiB
Plaintext
973 lines
15 KiB
Plaintext
//TJADB Project
|
|
TITLE:Honjitsu wa Seiten Nari
|
|
TITLEJA:本日ハ晴天ナリ
|
|
SUBTITLE:--Do As Infinity/J League Winning Eleven Tactics
|
|
SUBTITLEJA:Do As Infinity
|
|
BPM:186.65
|
|
WAVE:Honjitsu wa Seiten Nari.ogg
|
|
OFFSET:-1.814
|
|
DEMOSTART:32.453
|
|
|
|
COURSE:Oni
|
|
LEVEL:7
|
|
SCOREINIT:520
|
|
SCOREDIFF:130
|
|
|
|
|
|
#START
|
|
|
|
|
|
300000000000200000200000200000000000200000000000,
|
|
#BPMCHANGE 185.92
|
|
100000000000200000200000200000000000200000000000,
|
|
#BPMCHANGE 188.03
|
|
#SCROLL 0.99
|
|
100000000000200000200000200000000000200000000000,
|
|
#BPMCHANGE 189
|
|
#SCROLL 0.98
|
|
200000000000100000000000200000000000100000000000,
|
|
#BPMCHANGE 184.57
|
|
#SCROLL 1.01
|
|
300000000000200000200000200000000000200000000000,
|
|
#BPMCHANGE 188.03
|
|
#SCROLL 0.99
|
|
100000000000200000200000200000000000200000000000,
|
|
#BPMCHANGE 190.41
|
|
#SCROLL 0.98
|
|
100000000000200000200000200000000000200000000000,
|
|
#BPMCHANGE 188.14
|
|
#SCROLL 0.99
|
|
200000000000100000000000200000000000100000000000,
|
|
#BPMCHANGE 189
|
|
#SCROLL 0.98
|
|
300000000000200000200000200000200000100000000000,
|
|
#BPMCHANGE 185.5
|
|
#SCROLL 1
|
|
100000000000200000200000200000200000100000000000,
|
|
#BPMCHANGE 190.52
|
|
#SCROLL 0.97
|
|
100000000000200000200000200000200000100000000000,
|
|
#BPMCHANGE 185.71
|
|
#SCROLL 1
|
|
200000000000100000000000200000000000100000000000,
|
|
#BPMCHANGE 188.19
|
|
#SCROLL 0.99
|
|
300000000000200000200000200000200000100000000000,
|
|
100000000000200000200000200000200000100000000000,
|
|
#BPMCHANGE 188.25
|
|
100000000000200000200000200000200000100000000000,
|
|
#BPMCHANGE 189.22
|
|
#SCROLL 0.98
|
|
200000200000100000000000200000200000100000000000,
|
|
#BPMCHANGE 185.5
|
|
#SCROLL 1
|
|
300000000000000000300000000000100000200000200000,
|
|
#BPMCHANGE 191.3
|
|
#SCROLL 0.97
|
|
100000000000200000200000000000100000200000000000,
|
|
#BPMCHANGE 184.16
|
|
#SCROLL 1.01
|
|
300000000000000000300000000000100000200000200000,
|
|
#BPMCHANGE 192.63
|
|
#SCROLL 0.96
|
|
100000000000200000200000000000100000200000000000,
|
|
#BPMCHANGE 184.98
|
|
#SCROLL 1
|
|
300000000000000000300000000000100000200000200000,
|
|
#BPMCHANGE 192.77
|
|
#SCROLL 0.96
|
|
100000000000200000200000000000100000200000000000,
|
|
#BPMCHANGE 186.74
|
|
#SCROLL 0.99
|
|
100000000000100000200000100000200000100000000000,
|
|
#BPMCHANGE 187.61
|
|
100000200000100000200000100000200200200000200000,
|
|
|
|
#GOGOSTART
|
|
#BPMCHANGE 189.68
|
|
#SCROLL 0.98
|
|
100000000000200000100000000000100000200000000000,
|
|
#BPMCHANGE 188
|
|
#SCROLL 0.99
|
|
100000000000200000100000000000100000200200200000,
|
|
100000000000200000100000000000100000200000000000,
|
|
#BPMCHANGE 187.11
|
|
100000200000200000100000200000100000200200200000,
|
|
#BPMCHANGE 188.03
|
|
100000200000200000100000200000100000200000000000,
|
|
#BPMCHANGE 188.87
|
|
#SCROLL 0.98
|
|
100000200000200000100000200000100000200200200000,
|
|
#BPMCHANGE 187.42
|
|
#SCROLL 0.99
|
|
100000200000200000100000000000100000200000000000,
|
|
#BPMCHANGE 187.71
|
|
200000000000200000100000200000100000200200200000,
|
|
#BPMCHANGE 187.39
|
|
100000100000200000100000000000100000200000000000,
|
|
#BPMCHANGE 189
|
|
#SCROLL 0.98
|
|
100000100000200000100000000000100000200200200000,
|
|
#BPMCHANGE 186.55
|
|
#SCROLL 1
|
|
100000100000200000100000000000100000200000000000,
|
|
#BPMCHANGE 188.57
|
|
#SCROLL 0.98
|
|
100000200000200000100000200000100000200200200000,
|
|
#BPMCHANGE 190.52
|
|
#SCROLL 0.97
|
|
100000200000200000100000200000100000200000000000,
|
|
#BPMCHANGE 188.89
|
|
#SCROLL 0.98
|
|
100000200000200000100000200000100000200000200200,
|
|
|
|
#GOGOEND
|
|
#BPMCHANGE 183.65
|
|
#SCROLL 1.01
|
|
100000000000000000200200200000000000000000200200,
|
|
200000000000000000200200200000000000000000100000,
|
|
#BPMCHANGE 192.41
|
|
#SCROLL 0.97
|
|
300000000000000000200200200000000000000000000000,
|
|
#BPMCHANGE 187.29
|
|
#SCROLL 0.99
|
|
200000100000200000000000100200200000200000200000,
|
|
#BPMCHANGE 190.09
|
|
#SCROLL 0.98
|
|
300000000000200200200000200000000000100000000000,
|
|
#BPMCHANGE 185.71
|
|
#SCROLL 1
|
|
100000000000200200200000200000000000100000000000,
|
|
#BPMCHANGE 189.54
|
|
#SCROLL 0.98
|
|
100000000000200200200000200000000000100000000000,
|
|
#BPMCHANGE 186.97
|
|
#SCROLL 0.99
|
|
100000100000200000000000100100100000200000000000,
|
|
#BPMCHANGE 188.14
|
|
300000000000200200200000200000000000100000000000,
|
|
#BPMCHANGE 189.32
|
|
#SCROLL 0.98
|
|
100000000000200200200000200000000000100000000000,
|
|
#BPMCHANGE 188.35
|
|
#SCROLL 0.99
|
|
100000000000200200200000200000000000100000000000,
|
|
#BPMCHANGE 186.65
|
|
#SCROLL 1
|
|
100000100000200000000000100100100000200000000000,
|
|
#BPMCHANGE 189.32
|
|
#SCROLL 0.98
|
|
300000000000200200200000200000200000100000000000,
|
|
#BPMCHANGE 188.03
|
|
#SCROLL 0.99
|
|
100000000000200000200200200000200000100000000000,
|
|
#BPMCHANGE 186.86
|
|
100000000000200200200000200000200000100000000000,
|
|
#BPMCHANGE 188.78
|
|
#SCROLL 0.98
|
|
200200200000100000000000200200200000100000000000,
|
|
#BPMCHANGE 188.46
|
|
#SCROLL 0.99
|
|
300000000000200200200000200000200000100000000000,
|
|
#BPMCHANGE 187.5
|
|
100000000000200000200200200000200000100000000000,
|
|
#BPMCHANGE 187.18
|
|
100000000000200200200000200000200000100000000000,
|
|
#BPMCHANGE 186.86
|
|
200200200000100000000000200200200000100000000000,
|
|
#BPMCHANGE 190.85
|
|
#SCROLL 0.97
|
|
300000000000000000300000000000100100200000200000,
|
|
#BPMCHANGE 186.65
|
|
#SCROLL 1
|
|
100000100100200000200000000000100000200000000000,
|
|
#BPMCHANGE 184.06
|
|
#SCROLL 1.01
|
|
300000000000000000300000000000100100200000200000,
|
|
#BPMCHANGE 190.85
|
|
#SCROLL 0.97
|
|
100000100100200000200000000000100000200000000000,
|
|
#BPMCHANGE 189
|
|
#SCROLL 0.98
|
|
300000000000000000300000000000100100200000200000,
|
|
#BPMCHANGE 187.82
|
|
#SCROLL 0.99
|
|
100000100100200000200000000000100000200000000000,
|
|
#BPMCHANGE 189.11
|
|
#SCROLL 0.98
|
|
100000000000100000200000100000200000100000000000,
|
|
#BPMCHANGE 186.13
|
|
#SCROLL 1
|
|
100000200000100000200000100000200200200200200200,
|
|
|
|
#GOGOSTART
|
|
#BPMCHANGE 189.87
|
|
#SCROLL 0.98
|
|
100000100100200000100000000000100000200000000000,
|
|
#BPMCHANGE 188.14
|
|
#SCROLL 0.99
|
|
100000100100200000100000000000100000200200200000,
|
|
#BPMCHANGE 185.92
|
|
#SCROLL 1
|
|
100000100100200000100000000000100000200000000000,
|
|
#BPMCHANGE 189.43
|
|
#SCROLL 0.98
|
|
100200200000200000100000200000100000200200200000,
|
|
#BPMCHANGE 186.55
|
|
#SCROLL 1
|
|
100200200000200000100000200000100000200000000000,
|
|
#BPMCHANGE 189.98
|
|
#SCROLL 0.98
|
|
100200200000200000100000200000100000200200200000,
|
|
#BPMCHANGE 189.59
|
|
100200200000200000100000000000100000200200200000,
|
|
#BPMCHANGE 186.39
|
|
#SCROLL 1
|
|
200000000000200000100000200000100000200200200000,
|
|
#BPMCHANGE 188.35
|
|
#SCROLL 0.99
|
|
100000100100200000100000000000100000200000000000,
|
|
#BPMCHANGE 187.18
|
|
100000100100200000100000000000100000200200200000,
|
|
#BPMCHANGE 188.14
|
|
100000100100200000100000000000100000200000000000,
|
|
#BPMCHANGE 188.68
|
|
#SCROLL 0.98
|
|
100200200000200000100000200000100000200200200000,
|
|
#BPMCHANGE 187.82
|
|
#SCROLL 0.99
|
|
100200200000200000100000200000100000200000000000,
|
|
#BPMCHANGE 184.26
|
|
#SCROLL 1.01
|
|
500000000000000008000000500000000000000008000000,
|
|
|
|
#GOGOEND
|
|
300000000000000000000000000000000000000000000000,
|
|
|
|
|
|
#END
|
|
|
|
|
|
COURSE:Hard
|
|
LEVEL:5
|
|
BALLOON:4
|
|
SCOREINIT:610
|
|
SCOREDIFF:140
|
|
|
|
|
|
#START
|
|
|
|
|
|
0222,
|
|
#BPMCHANGE 185.92
|
|
0222,
|
|
#BPMCHANGE 188.03
|
|
#SCROLL 0.99
|
|
00222020,
|
|
#BPMCHANGE 189
|
|
#SCROLL 0.98
|
|
2222,
|
|
#BPMCHANGE 184.57
|
|
#SCROLL 1.01
|
|
0222,
|
|
#BPMCHANGE 188.03
|
|
#SCROLL 0.99
|
|
0222,
|
|
#BPMCHANGE 190.41
|
|
#SCROLL 0.98
|
|
00222020,
|
|
#BPMCHANGE 188.14
|
|
#SCROLL 0.99
|
|
2222,
|
|
#BPMCHANGE 189
|
|
#SCROLL 0.98
|
|
2,
|
|
#BPMCHANGE 185.5
|
|
#SCROLL 1
|
|
0002,
|
|
#BPMCHANGE 190.52
|
|
#SCROLL 0.97
|
|
2,
|
|
#BPMCHANGE 185.71
|
|
#SCROLL 1
|
|
2222,
|
|
#BPMCHANGE 188.19
|
|
#SCROLL 0.99
|
|
2,
|
|
0002,
|
|
#BPMCHANGE 188.25
|
|
2,
|
|
#BPMCHANGE 189.22
|
|
#SCROLL 0.98
|
|
,
|
|
#BPMCHANGE 185.5
|
|
#SCROLL 1
|
|
30030222,
|
|
#BPMCHANGE 191.3
|
|
#SCROLL 0.97
|
|
20112010,
|
|
#BPMCHANGE 184.16
|
|
#SCROLL 1.01
|
|
30030222,
|
|
#BPMCHANGE 192.63
|
|
#SCROLL 0.96
|
|
20112010,
|
|
#BPMCHANGE 184.98
|
|
#SCROLL 1
|
|
30030222,
|
|
#BPMCHANGE 192.77
|
|
#SCROLL 0.96
|
|
20112010,
|
|
#BPMCHANGE 186.74
|
|
#SCROLL 0.99
|
|
00300300,
|
|
#BPMCHANGE 187.61
|
|
3434,
|
|
|
|
#GOGOSTART
|
|
#BPMCHANGE 189.68
|
|
#SCROLL 0.98
|
|
40110120,
|
|
#BPMCHANGE 188
|
|
#SCROLL 0.99
|
|
20110120,
|
|
20110120,
|
|
#BPMCHANGE 187.11
|
|
21202120,
|
|
#BPMCHANGE 188.03
|
|
20112010,
|
|
#BPMCHANGE 188.87
|
|
#SCROLL 0.98
|
|
20112010,
|
|
#BPMCHANGE 187.42
|
|
#SCROLL 0.99
|
|
20110120,
|
|
#BPMCHANGE 187.71
|
|
21212120,
|
|
#BPMCHANGE 187.39
|
|
40110120,
|
|
#BPMCHANGE 189
|
|
#SCROLL 0.98
|
|
20110120,
|
|
#BPMCHANGE 186.55
|
|
#SCROLL 1
|
|
20110120,
|
|
#BPMCHANGE 188.57
|
|
#SCROLL 0.98
|
|
21202120,
|
|
#BPMCHANGE 190.52
|
|
#SCROLL 0.97
|
|
20212120,
|
|
#BPMCHANGE 188.89
|
|
#SCROLL 0.98
|
|
20212120,
|
|
|
|
#GOGOEND
|
|
#BPMCHANGE 183.65
|
|
#SCROLL 1.01
|
|
40022002,
|
|
20022001,
|
|
#BPMCHANGE 192.41
|
|
#SCROLL 0.97
|
|
30022000,
|
|
#BPMCHANGE 187.29
|
|
#SCROLL 0.99
|
|
21207080,
|
|
#BPMCHANGE 190.09
|
|
#SCROLL 0.98
|
|
30222020,
|
|
#BPMCHANGE 185.71
|
|
#SCROLL 1
|
|
10222020,
|
|
#BPMCHANGE 189.54
|
|
#SCROLL 0.98
|
|
10222020,
|
|
#BPMCHANGE 186.97
|
|
#SCROLL 0.99
|
|
2222,
|
|
#BPMCHANGE 188.14
|
|
30222020,
|
|
#BPMCHANGE 189.32
|
|
#SCROLL 0.98
|
|
10222020,
|
|
#BPMCHANGE 188.35
|
|
#SCROLL 0.99
|
|
10222020,
|
|
#BPMCHANGE 186.65
|
|
#SCROLL 1
|
|
2222,
|
|
#BPMCHANGE 189.32
|
|
#SCROLL 0.98
|
|
30101022,
|
|
#BPMCHANGE 188.03
|
|
#SCROLL 0.99
|
|
1112,
|
|
#BPMCHANGE 186.86
|
|
2111,
|
|
#BPMCHANGE 188.78
|
|
#SCROLL 0.98
|
|
2222,
|
|
#BPMCHANGE 188.46
|
|
#SCROLL 0.99
|
|
30101022,
|
|
#BPMCHANGE 187.5
|
|
1112,
|
|
#BPMCHANGE 187.18
|
|
2111,
|
|
#BPMCHANGE 186.86
|
|
10101120,
|
|
#BPMCHANGE 190.85
|
|
#SCROLL 0.97
|
|
30030222,
|
|
#BPMCHANGE 186.65
|
|
#SCROLL 1
|
|
20112010,
|
|
#BPMCHANGE 184.06
|
|
#SCROLL 1.01
|
|
30030222,
|
|
#BPMCHANGE 190.85
|
|
#SCROLL 0.97
|
|
20112010,
|
|
#BPMCHANGE 189
|
|
#SCROLL 0.98
|
|
30030222,
|
|
#BPMCHANGE 187.82
|
|
#SCROLL 0.99
|
|
20112010,
|
|
#BPMCHANGE 189.11
|
|
#SCROLL 0.98
|
|
00300300,
|
|
#BPMCHANGE 186.13
|
|
#SCROLL 1
|
|
3434,
|
|
|
|
#GOGOSTART
|
|
#BPMCHANGE 189.87
|
|
#SCROLL 0.98
|
|
40110120,
|
|
#BPMCHANGE 188.14
|
|
#SCROLL 0.99
|
|
20110120,
|
|
#BPMCHANGE 185.92
|
|
#SCROLL 1
|
|
20110120,
|
|
#BPMCHANGE 189.43
|
|
#SCROLL 0.98
|
|
21202120,
|
|
#BPMCHANGE 186.55
|
|
#SCROLL 1
|
|
20112010,
|
|
#BPMCHANGE 189.98
|
|
#SCROLL 0.98
|
|
20112010,
|
|
#BPMCHANGE 189.59
|
|
20110120,
|
|
#BPMCHANGE 186.39
|
|
#SCROLL 1
|
|
21212120,
|
|
#BPMCHANGE 188.35
|
|
#SCROLL 0.99
|
|
40110120,
|
|
#BPMCHANGE 187.18
|
|
20110120,
|
|
#BPMCHANGE 188.14
|
|
20110120,
|
|
#BPMCHANGE 188.68
|
|
#SCROLL 0.98
|
|
21202120,
|
|
#BPMCHANGE 187.82
|
|
#SCROLL 0.99
|
|
20212120,
|
|
#BPMCHANGE 184.26
|
|
#SCROLL 1.01
|
|
33,
|
|
|
|
#GOGOEND
|
|
3,
|
|
|
|
|
|
#END
|
|
|
|
|
|
COURSE:Normal
|
|
LEVEL:4
|
|
BALLOON:8,6
|
|
SCOREINIT:650
|
|
SCOREDIFF:190
|
|
|
|
|
|
#START
|
|
|
|
|
|
0222,
|
|
#BPMCHANGE 185.92
|
|
0222,
|
|
#BPMCHANGE 188.03
|
|
#SCROLL 0.99
|
|
0222,
|
|
#BPMCHANGE 189
|
|
#SCROLL 0.98
|
|
1212,
|
|
#BPMCHANGE 184.57
|
|
#SCROLL 1.01
|
|
0222,
|
|
#BPMCHANGE 188.03
|
|
#SCROLL 0.99
|
|
0222,
|
|
#BPMCHANGE 190.41
|
|
#SCROLL 0.98
|
|
0222,
|
|
#BPMCHANGE 188.14
|
|
#SCROLL 0.99
|
|
1212,
|
|
#BPMCHANGE 189
|
|
#SCROLL 0.98
|
|
3,
|
|
#BPMCHANGE 185.5
|
|
#SCROLL 1
|
|
0002,
|
|
#BPMCHANGE 190.52
|
|
#SCROLL 0.97
|
|
2,
|
|
#BPMCHANGE 185.71
|
|
#SCROLL 1
|
|
1212,
|
|
#BPMCHANGE 188.19
|
|
#SCROLL 0.99
|
|
3,
|
|
0002,
|
|
#BPMCHANGE 188.25
|
|
2,
|
|
#BPMCHANGE 189.22
|
|
#SCROLL 0.98
|
|
1212,
|
|
#BPMCHANGE 185.5
|
|
#SCROLL 1
|
|
30030000,
|
|
#BPMCHANGE 191.3
|
|
#SCROLL 0.97
|
|
00220020,
|
|
#BPMCHANGE 184.16
|
|
#SCROLL 1.01
|
|
30030000,
|
|
#BPMCHANGE 192.63
|
|
#SCROLL 0.96
|
|
00220020,
|
|
#BPMCHANGE 184.98
|
|
#SCROLL 1
|
|
30030000,
|
|
#BPMCHANGE 192.77
|
|
#SCROLL 0.96
|
|
00220020,
|
|
#BPMCHANGE 186.74
|
|
#SCROLL 0.99
|
|
00300300,
|
|
#BPMCHANGE 187.61
|
|
3434,
|
|
|
|
#GOGOSTART
|
|
#BPMCHANGE 189.68
|
|
#SCROLL 0.98
|
|
3001,
|
|
#BPMCHANGE 188
|
|
#SCROLL 0.99
|
|
1001,
|
|
1,
|
|
#BPMCHANGE 187.11
|
|
1212,
|
|
#BPMCHANGE 188.03
|
|
1212,
|
|
#BPMCHANGE 188.87
|
|
#SCROLL 0.98
|
|
1210,
|
|
#BPMCHANGE 187.42
|
|
#SCROLL 0.99
|
|
500000000000000000000000000008000000000000000000,
|
|
#BPMCHANGE 187.71
|
|
1122,
|
|
#BPMCHANGE 187.39
|
|
3001,
|
|
#BPMCHANGE 189
|
|
#SCROLL 0.98
|
|
1001,
|
|
#BPMCHANGE 186.55
|
|
#SCROLL 1
|
|
1,
|
|
#BPMCHANGE 188.57
|
|
#SCROLL 0.98
|
|
1212,
|
|
#BPMCHANGE 190.52
|
|
#SCROLL 0.97
|
|
1212,
|
|
#BPMCHANGE 188.89
|
|
#SCROLL 0.98
|
|
1210,
|
|
|
|
#GOGOEND
|
|
#BPMCHANGE 183.65
|
|
#SCROLL 1.01
|
|
7,
|
|
8,
|
|
#BPMCHANGE 192.41
|
|
#SCROLL 0.97
|
|
7008,
|
|
#BPMCHANGE 187.29
|
|
#SCROLL 0.99
|
|
1121,
|
|
#BPMCHANGE 190.09
|
|
#SCROLL 0.98
|
|
3222,
|
|
#BPMCHANGE 185.71
|
|
#SCROLL 1
|
|
0222,
|
|
#BPMCHANGE 189.54
|
|
#SCROLL 0.98
|
|
0222,
|
|
#BPMCHANGE 186.97
|
|
#SCROLL 0.99
|
|
1212,
|
|
#BPMCHANGE 188.14
|
|
3222,
|
|
#BPMCHANGE 189.32
|
|
#SCROLL 0.98
|
|
0222,
|
|
#BPMCHANGE 188.35
|
|
#SCROLL 0.99
|
|
0222,
|
|
#BPMCHANGE 186.65
|
|
#SCROLL 1
|
|
1212,
|
|
#BPMCHANGE 189.32
|
|
#SCROLL 0.98
|
|
3001,
|
|
#BPMCHANGE 188.03
|
|
#SCROLL 0.99
|
|
1002,
|
|
#BPMCHANGE 186.86
|
|
2,
|
|
#BPMCHANGE 188.78
|
|
#SCROLL 0.98
|
|
1212,
|
|
#BPMCHANGE 188.46
|
|
#SCROLL 0.99
|
|
3001,
|
|
#BPMCHANGE 187.5
|
|
1002,
|
|
#BPMCHANGE 187.18
|
|
2,
|
|
#BPMCHANGE 186.86
|
|
1212,
|
|
#BPMCHANGE 190.85
|
|
#SCROLL 0.97
|
|
30030000,
|
|
#BPMCHANGE 186.65
|
|
#SCROLL 1
|
|
00220020,
|
|
#BPMCHANGE 184.06
|
|
#SCROLL 1.01
|
|
30030000,
|
|
#BPMCHANGE 190.85
|
|
#SCROLL 0.97
|
|
00220020,
|
|
#BPMCHANGE 189
|
|
#SCROLL 0.98
|
|
30030000,
|
|
#BPMCHANGE 187.82
|
|
#SCROLL 0.99
|
|
00220020,
|
|
#BPMCHANGE 189.11
|
|
#SCROLL 0.98
|
|
00300300,
|
|
#BPMCHANGE 186.13
|
|
#SCROLL 1
|
|
3434,
|
|
|
|
#GOGOSTART
|
|
#BPMCHANGE 189.87
|
|
#SCROLL 0.98
|
|
3001,
|
|
#BPMCHANGE 188.14
|
|
#SCROLL 0.99
|
|
1001,
|
|
#BPMCHANGE 185.92
|
|
#SCROLL 1
|
|
1,
|
|
#BPMCHANGE 189.43
|
|
#SCROLL 0.98
|
|
1212,
|
|
#BPMCHANGE 186.55
|
|
#SCROLL 1
|
|
1212,
|
|
#BPMCHANGE 189.98
|
|
#SCROLL 0.98
|
|
1210,
|
|
#BPMCHANGE 189.59
|
|
500000000000000000000000000008000000000000000000,
|
|
#BPMCHANGE 186.39
|
|
#SCROLL 1
|
|
1122,
|
|
#BPMCHANGE 188.35
|
|
#SCROLL 0.99
|
|
3001,
|
|
#BPMCHANGE 187.18
|
|
1001,
|
|
#BPMCHANGE 188.14
|
|
1,
|
|
#BPMCHANGE 188.68
|
|
#SCROLL 0.98
|
|
1212,
|
|
#BPMCHANGE 187.82
|
|
#SCROLL 0.99
|
|
1212,
|
|
#BPMCHANGE 184.26
|
|
#SCROLL 1.01
|
|
33,
|
|
|
|
#GOGOEND
|
|
3,
|
|
|
|
|
|
#END
|
|
|
|
|
|
COURSE:Easy
|
|
LEVEL:4
|
|
BALLOON:8,8
|
|
SCOREINIT:550
|
|
SCOREDIFF:190
|
|
|
|
|
|
#START
|
|
|
|
|
|
0101,
|
|
#BPMCHANGE 185.92
|
|
0101,
|
|
#BPMCHANGE 188.03
|
|
#SCROLL 0.99
|
|
0101,
|
|
#BPMCHANGE 189
|
|
#SCROLL 0.98
|
|
0404,
|
|
#BPMCHANGE 184.57
|
|
#SCROLL 1.01
|
|
0101,
|
|
#BPMCHANGE 188.03
|
|
#SCROLL 0.99
|
|
0101,
|
|
#BPMCHANGE 190.41
|
|
#SCROLL 0.98
|
|
0101,
|
|
#BPMCHANGE 188.14
|
|
#SCROLL 0.99
|
|
0404,
|
|
#BPMCHANGE 189
|
|
#SCROLL 0.98
|
|
3,
|
|
#BPMCHANGE 185.5
|
|
#SCROLL 1
|
|
1001,
|
|
#BPMCHANGE 190.52
|
|
#SCROLL 0.97
|
|
1,
|
|
#BPMCHANGE 185.71
|
|
#SCROLL 1
|
|
11,
|
|
#BPMCHANGE 188.19
|
|
#SCROLL 0.99
|
|
3,
|
|
1001,
|
|
#BPMCHANGE 188.25
|
|
1,
|
|
#BPMCHANGE 189.22
|
|
#SCROLL 0.98
|
|
11,
|
|
#BPMCHANGE 185.5
|
|
#SCROLL 1
|
|
30030000,
|
|
#BPMCHANGE 191.3
|
|
#SCROLL 0.97
|
|
,
|
|
#BPMCHANGE 184.16
|
|
#SCROLL 1.01
|
|
30030000,
|
|
#BPMCHANGE 192.63
|
|
#SCROLL 0.96
|
|
,
|
|
#BPMCHANGE 184.98
|
|
#SCROLL 1
|
|
30030000,
|
|
#BPMCHANGE 192.77
|
|
#SCROLL 0.96
|
|
,
|
|
#BPMCHANGE 186.74
|
|
#SCROLL 0.99
|
|
33,
|
|
#BPMCHANGE 187.61
|
|
3333,
|
|
|
|
#GOGOSTART
|
|
#BPMCHANGE 189.68
|
|
#SCROLL 0.98
|
|
3001,
|
|
#BPMCHANGE 188
|
|
#SCROLL 0.99
|
|
1001,
|
|
1,
|
|
#BPMCHANGE 187.11
|
|
11,
|
|
#BPMCHANGE 188.03
|
|
12,
|
|
#BPMCHANGE 188.87
|
|
#SCROLL 0.98
|
|
12,
|
|
#BPMCHANGE 187.42
|
|
#SCROLL 0.99
|
|
1,
|
|
#BPMCHANGE 187.71
|
|
3333,
|
|
#BPMCHANGE 187.39
|
|
3001,
|
|
#BPMCHANGE 189
|
|
#SCROLL 0.98
|
|
1001,
|
|
#BPMCHANGE 186.55
|
|
#SCROLL 1
|
|
1,
|
|
#BPMCHANGE 188.57
|
|
#SCROLL 0.98
|
|
12,
|
|
#BPMCHANGE 190.52
|
|
#SCROLL 0.97
|
|
12,
|
|
#BPMCHANGE 188.89
|
|
#SCROLL 0.98
|
|
11,
|
|
|
|
#GOGOEND
|
|
#BPMCHANGE 183.65
|
|
#SCROLL 1.01
|
|
7,
|
|
08,
|
|
#BPMCHANGE 192.41
|
|
#SCROLL 0.97
|
|
7,
|
|
#BPMCHANGE 187.29
|
|
#SCROLL 0.99
|
|
08,
|
|
#BPMCHANGE 190.09
|
|
#SCROLL 0.98
|
|
0101,
|
|
#BPMCHANGE 185.71
|
|
#SCROLL 1
|
|
0101,
|
|
#BPMCHANGE 189.54
|
|
#SCROLL 0.98
|
|
0101,
|
|
#BPMCHANGE 186.97
|
|
#SCROLL 0.99
|
|
0404,
|
|
#BPMCHANGE 188.14
|
|
0101,
|
|
#BPMCHANGE 189.32
|
|
#SCROLL 0.98
|
|
0101,
|
|
#BPMCHANGE 188.35
|
|
#SCROLL 0.99
|
|
0101,
|
|
#BPMCHANGE 186.65
|
|
#SCROLL 1
|
|
0404,
|
|
#BPMCHANGE 189.32
|
|
#SCROLL 0.98
|
|
3,
|
|
#BPMCHANGE 188.03
|
|
#SCROLL 0.99
|
|
1001,
|
|
#BPMCHANGE 186.86
|
|
1,
|
|
#BPMCHANGE 188.78
|
|
#SCROLL 0.98
|
|
11,
|
|
#BPMCHANGE 188.46
|
|
#SCROLL 0.99
|
|
3,
|
|
#BPMCHANGE 187.5
|
|
3001,
|
|
#BPMCHANGE 187.18
|
|
1,
|
|
#BPMCHANGE 186.86
|
|
11,
|
|
#BPMCHANGE 190.85
|
|
#SCROLL 0.97
|
|
30030000,
|
|
#BPMCHANGE 186.65
|
|
#SCROLL 1
|
|
,
|
|
#BPMCHANGE 184.06
|
|
#SCROLL 1.01
|
|
30030000,
|
|
#BPMCHANGE 190.85
|
|
#SCROLL 0.97
|
|
,
|
|
#BPMCHANGE 189
|
|
#SCROLL 0.98
|
|
30030000,
|
|
#BPMCHANGE 187.82
|
|
#SCROLL 0.99
|
|
,
|
|
#BPMCHANGE 189.11
|
|
#SCROLL 0.98
|
|
33,
|
|
#BPMCHANGE 186.13
|
|
#SCROLL 1
|
|
3333,
|
|
|
|
#GOGOSTART
|
|
#BPMCHANGE 189.87
|
|
#SCROLL 0.98
|
|
3001,
|
|
#BPMCHANGE 188.14
|
|
#SCROLL 0.99
|
|
1001,
|
|
#BPMCHANGE 185.92
|
|
#SCROLL 1
|
|
1,
|
|
#BPMCHANGE 189.43
|
|
#SCROLL 0.98
|
|
12,
|
|
#BPMCHANGE 186.55
|
|
#SCROLL 1
|
|
12,
|
|
#BPMCHANGE 189.98
|
|
#SCROLL 0.98
|
|
11,
|
|
#BPMCHANGE 189.59
|
|
1,
|
|
#BPMCHANGE 186.39
|
|
#SCROLL 1
|
|
3333,
|
|
#BPMCHANGE 188.35
|
|
#SCROLL 0.99
|
|
3001,
|
|
#BPMCHANGE 187.18
|
|
1001,
|
|
#BPMCHANGE 188.14
|
|
1,
|
|
#BPMCHANGE 188.68
|
|
#SCROLL 0.98
|
|
12,
|
|
#BPMCHANGE 187.82
|
|
#SCROLL 0.99
|
|
12,
|
|
#BPMCHANGE 184.26
|
|
#SCROLL 1.01
|
|
33,
|
|
|
|
#GOGOEND
|
|
3,
|
|
|
|
|
|
#END
|
|
|