forked from ESE/ESE
496 lines
16 KiB
Plaintext
496 lines
16 KiB
Plaintext
//TJADB Project
|
|
TITLE:Ima, Sakihokoru Hanatachi yo
|
|
TITLEJA:今、咲き誇る花たちよ
|
|
SUBTITLE:--Kobukuro
|
|
SUBTITLEJA:NHKソチオリンピック・パラリンピック放送 テーマソング
|
|
BPM:195
|
|
WAVE:Ima, Sakihokoru Hanatachi yo.ogg
|
|
OFFSET:-3.023
|
|
DEMOSTART:65.465
|
|
|
|
COURSE:Oni
|
|
LEVEL:6
|
|
BALLOON:20
|
|
SCOREINIT:740
|
|
SCOREDIFF:180
|
|
|
|
|
|
#START
|
|
|
|
|
|
#MEASURE 3/4
|
|
#GOGOSTART
|
|
100000000000200000000000200000000000,
|
|
100000000000200000200000200000000000,
|
|
100000200000000000200000200000000000,
|
|
300000000000000000000000100000100000,
|
|
100000000000200000000000200000000000,
|
|
100000000000200000200000200000000000,
|
|
100000200000000000200000200000000000,
|
|
300000000000000000000000200000200000,
|
|
100000000000200000000000200000000000,
|
|
100000000000200000200000200000000000,
|
|
100000200000000000200000100000100000,
|
|
300000000000000000000000200000200000,
|
|
100000000000200000200000200000000000,
|
|
100000000000200000200000200000000000,
|
|
700000000000000000000000000000000000,
|
|
000000000000000000000000000000000000,
|
|
000000000000000000000000000000000000,
|
|
#GOGOEND
|
|
800000000000000000000000100000100000,
|
|
100000000000200000000000200000000000,
|
|
100000000000200000200000200000000000,
|
|
100000200000000000200000100000200000,
|
|
100000000000000000000000100000100000,
|
|
100000000000200000000000200000000000,
|
|
100000000000200000200000200000000000,
|
|
100000200000000000200000100000200000,
|
|
100000000000000000000000100000100000,
|
|
100000000000200000000000200000000000,
|
|
100000000000200000200000200000000000,
|
|
100000200000000000200000100000200000,
|
|
100000000000000000000000100000100000,
|
|
100000000000200000200000100000000000,
|
|
100000000000200000200000100000000000,
|
|
500000000000000000000000000000000008,
|
|
000000000000000000000000100000100000,
|
|
100000000000200000000000200000000000,
|
|
100000000000200000200000200000000000,
|
|
100000200000100000100000100000200000,
|
|
100000000000000000000000100000100000,
|
|
100000000000200000000000200000000000,
|
|
100000000000200000200000200000000000,
|
|
100000200000100000100000100000200000,
|
|
100000000000000000000000100000100000,
|
|
100000000000200000200000200000000000,
|
|
100000200000100000000000200000100000,
|
|
200000000000200000200000100000000000,
|
|
200000200000100000200000100000000000,
|
|
100000000000200000200000100000000000,
|
|
100000000000200000200000100000000000,
|
|
100000200000200000100000200000200000,
|
|
300000000000000000000000000000000000,
|
|
100000000000100000200000200000000000,
|
|
100000000000100000200000200000000000,
|
|
100000000000100000200000200000000000,
|
|
100000000000200000200000100000000000,
|
|
100000000000200000200000100000000000,
|
|
100000000000200000200000100000000000,
|
|
100000200000100000100000200000200000,
|
|
300000000000000000000000000000000000,
|
|
100000200000100000100000100000000000,
|
|
100000200000100000100000100000000000,
|
|
100000100000200000100000100000000000,
|
|
100000100000200000100000100000000000,
|
|
100000100000100000200000100000000000,
|
|
100000100000100000200000100000000000,
|
|
100000100000200000100000100000000000,
|
|
100000100000200000100000100000200000,
|
|
100000100000200000100000100000200000,
|
|
300000000000000000000000100000100000,
|
|
#GOGOSTART
|
|
100000000000200000200000200000000000,
|
|
100000100000200000100000200000000000,
|
|
100000000000200000200000200000000000,
|
|
300000000000000000000000000000000000,
|
|
100000000000200000200000200000000000,
|
|
100000100000200000100000100000000000,
|
|
100000100000200000100000100000200000,
|
|
300000000000000000000000100000100000,
|
|
100000000000200000200000200000000000,
|
|
100000100000200000100000200000000000,
|
|
100000100000200000100000100000200000,
|
|
300000000000000000000000200000200000,
|
|
100000000000200000200000200000000000,
|
|
100000100000200000100000200000200000,
|
|
500000000000000000000000000000000008,
|
|
#GOGOEND
|
|
000000000000000000000000100000100000,
|
|
100000000000200000000000200000000000,
|
|
100000000000200000200000200000000000,
|
|
100000100000200000100000200000000000,
|
|
300000000000000000000000000000000000,
|
|
100000000000200000000000200000000000,
|
|
100000000000200000200000200000000000,
|
|
100000200000100000200000100000200000,
|
|
300000000000000000000000000000000000,
|
|
100000000000200000200000100000000000,
|
|
100000000000200000200000100000000000,
|
|
100000200000100000100000200000200000,
|
|
300000000000000000000000200000200000,
|
|
100000000000200000200000200000000000,
|
|
100000200000100000100000200000200000,
|
|
300000000000300000000000300000000000,
|
|
300000000000000000000000000000000000,
|
|
|
|
|
|
#END
|
|
|
|
|
|
COURSE:Hard
|
|
LEVEL:5
|
|
BALLOON:18
|
|
SCOREINIT:820
|
|
SCOREDIFF:253
|
|
|
|
|
|
#START
|
|
|
|
|
|
#SCROLL 0.5
|
|
#MEASURE 3/4
|
|
#GOGOSTART
|
|
100000000000000000200000200000000000,
|
|
100000000000200000000000200000000000,
|
|
100000000000000000200000200000000000,
|
|
100000000000000000000000000000000000,
|
|
100000000000000000200000200000000000,
|
|
100000000000200000000000200000000000,
|
|
100000000000000000200000200000000000,
|
|
100000000000000000000000100000100000,
|
|
100000000000200000000000200000000000,
|
|
100000000000200000000000200000000000,
|
|
100000000000200000200000200000000000,
|
|
100000000000000000000000100000000000,
|
|
100000000000000000000000200000000000,
|
|
100000000000000000000000200000000000,
|
|
700000000000000000000000000000000000,
|
|
000000000000000000000000000000000000,
|
|
000000000000000000000000000000000800,
|
|
#GOGOEND
|
|
000000000000000000000000100000100000,
|
|
100000000000200000000000200000000000,
|
|
100000000000200000000000200000000000,
|
|
100000000000000000200000200000000000,
|
|
100000000000000000000000100000100000,
|
|
100000000000200000000000200000000000,
|
|
100000000000200000000000200000000000,
|
|
100000000000000000200000200000000000,
|
|
100000000000000000000000100000100000,
|
|
100000000000200000000000200000000000,
|
|
100000000000200000000000200000000000,
|
|
100000000000000000200000200000000000,
|
|
100000000000000000000000100000000000,
|
|
100000000000200000000000100000000000,
|
|
100000000000200000000000100000000000,
|
|
500000000000000000000000000000000800,
|
|
000000000000000000000000100000100000,
|
|
100000000000200000000000200000000000,
|
|
100000000000200000000000200000000000,
|
|
100000000000200000200000200000000000,
|
|
100000000000000000000000100000100000,
|
|
100000000000200000000000200000000000,
|
|
100000000000200000000000200000000000,
|
|
100000000000000000200000200000000000,
|
|
100000000000000000000000100000100000,
|
|
100000000000200000000000200000000000,
|
|
100000000000200000000000100000100000,
|
|
100000000000200000000000200000000000,
|
|
100000000000200000000000200000000000,
|
|
100000000000200000000000100000000000,
|
|
100000000000200000000000100000000000,
|
|
100000000000200000200000200000000000,
|
|
200000000000000000000000000000000000,
|
|
100000000000100000000000200000000000,
|
|
100000000000100000000000200000000000,
|
|
100000000000000000000000100000000000,
|
|
100000000000000000000000000000000000,
|
|
100000000000000000000000100000000000,
|
|
100000000000000000000000100000000000,
|
|
100000000000200000200000200000000000,
|
|
200000000000000000000000000000000000,
|
|
100000000000100000000000200000000000,
|
|
100000000000100000000000200000000000,
|
|
100000000000200000200000200000000000,
|
|
100000000000100000000000200000000000,
|
|
100000000000200000200000200000000000,
|
|
100000000000100000000000200000000000,
|
|
100000000000100000000000200000000000,
|
|
100000000000100000000000200000000000,
|
|
100000000000200000000000100000100000,
|
|
300000000000000000000000100000100000,
|
|
#GOGOSTART
|
|
100000000000200000000000200000000000,
|
|
100000000000200000200000200000000000,
|
|
100000200000000000200000100000000000,
|
|
100000000000000000000000000000000000,
|
|
100000000000200000000000200000000000,
|
|
100000000000200000200000200000000000,
|
|
100000200000000000200000100000000000,
|
|
100000000000000000000000100000100000,
|
|
100000000000200000000000200000000000,
|
|
100000000000200000200000200000000000,
|
|
100000100000100000000000200000000000,
|
|
300000000000000000000000100000000000,
|
|
100000000000200000200000100000000000,
|
|
100000000000200000200000100000000000,
|
|
500000000000000000000000000000000800,
|
|
#GOGOEND
|
|
000000000000000000000000100000100000,
|
|
100000000000200000000000200000000000,
|
|
100000000000200000200000200000000000,
|
|
100000200000000000200000100000000000,
|
|
100000000000200000000000200000000000,
|
|
100000000000200000000000200000000000,
|
|
100000000000200000200000200000000000,
|
|
100000000000200000000000100000100000,
|
|
100000000000000000000000100000100000,
|
|
100000000000200000000000200000000000,
|
|
100000000000200000200000200000000000,
|
|
100000200000000000200000100000000000,
|
|
100000000000000000000000200000200000,
|
|
100000000000200000000000200000000000,
|
|
100000000000200000000000200000000000,
|
|
100000000000100000000000100000000000,
|
|
300000000000000000000000000000000000,
|
|
|
|
|
|
#END
|
|
|
|
|
|
COURSE:Normal
|
|
LEVEL:5
|
|
BALLOON:15
|
|
SCOREINIT:890
|
|
SCOREDIFF:303
|
|
|
|
|
|
#START
|
|
|
|
|
|
#MEASURE 3/4
|
|
#GOGOSTART
|
|
#SCROLL 0.5
|
|
100000000000000000000000100000000000,
|
|
100000000000000000000000200000000000,
|
|
100000000000000000000000100000000000,
|
|
100000000000000000000000000000000000,
|
|
100000000000000000000000200000000000,
|
|
100000000000000000000000100000000000,
|
|
100000000000000000000000200000000000,
|
|
100000000000000000000000100000100000,
|
|
100000000000000000000000100000000000,
|
|
100000000000000000000000000000000000,
|
|
100000000000100000000000100000000000,
|
|
100000000000000000000000100000000000,
|
|
100000000000000000000000200000000000,
|
|
100000000000000000000000200000000000,
|
|
700000000000000000000000000000000000,
|
|
000000000000000000000000000000000000,
|
|
000000000000000000000000000000800000,
|
|
#GOGOEND
|
|
000000000000000000000000100000100000,
|
|
100000000000000000000000100000000000,
|
|
100000000000000000000000200000000000,
|
|
100000000000000000000000100000000000,
|
|
100000000000000000000000100000100000,
|
|
100000000000000000000000200000000000,
|
|
200000000000000000000000200000000000,
|
|
100000000000000000000000100000000000,
|
|
100000000000000000000000100000100000,
|
|
100000000000000000000000100000000000,
|
|
100000000000000000000000200000000000,
|
|
200000000000000000000000200000000000,
|
|
100000000000000000000000100000000000,
|
|
100000000000000000000000200000000000,
|
|
100000000000000000000000000000000000,
|
|
500000000000000000000000000000800000,
|
|
000000000000000000000000100000100000,
|
|
100000000000000000000000100000000000,
|
|
100000000000000000000000200000000000,
|
|
200000000000000000000000200000000000,
|
|
100000000000000000000000100000100000,
|
|
100000000000000000000000100000000000,
|
|
100000000000000000000000200000000000,
|
|
200000000000000000200000200000000000,
|
|
100000000000000000000000100000100000,
|
|
100000000000200000000000100000000000,
|
|
100000000000000000000000100000000000,
|
|
100000000000000000000000000000000000,
|
|
100000000000200000000000100000000000,
|
|
100000000000000000000000200000000000,
|
|
200000000000000000000000100000000000,
|
|
100000000000000000000000000000000000,
|
|
000000000000000000000000000000000000,
|
|
100000000000100000000000200000000000,
|
|
100000000000000000000000200000000000,
|
|
100000000000000000000000200000000000,
|
|
100000000000000000000000100000000000,
|
|
100000000000000000000000200000000000,
|
|
100000000000000000000000100000000000,
|
|
100000000000000000000000000000000000,
|
|
000000000000000000000000000000000000,
|
|
100000000000100000000000200000000000,
|
|
100000000000000000000000200000000000,
|
|
100000000000000000000000000000000000,
|
|
100000000000100000000000200000000000,
|
|
100000000000000000000000000000000000,
|
|
100000000000100000000000200000000000,
|
|
100000000000200000000000100000000000,
|
|
100000000000000000000000100000000000,
|
|
100000000000100000000000100000000000,
|
|
300000000000000000000000100000100000,
|
|
#GOGOSTART
|
|
100000000000200000000000200000000000,
|
|
100000000000200000000000200000000000,
|
|
100000000000000000000000200000000000,
|
|
100000000000000000000000000000000000,
|
|
100000000000200000000000200000000000,
|
|
100000000000200000000000200000000000,
|
|
100000000000000000000000100000100000,
|
|
100000000000000000000000100000100000,
|
|
100000000000200000000000200000000000,
|
|
100000000000200000000000200000000000,
|
|
100000000000100000000000100000000000,
|
|
300000000000000000000000100000000000,
|
|
100000000000000000000000100000000000,
|
|
100000000000000000000000000000000000,
|
|
500000000000000000000000000000000000,
|
|
#GOGOEND
|
|
800000000000000000000000100000100000,
|
|
100000000000200000000000200000000000,
|
|
100000000000000000000000200000000000,
|
|
100000000000200000000000200000000000,
|
|
100000000000000000000000000000000000,
|
|
100000000000200000000000200000000000,
|
|
100000000000000000000000200000000000,
|
|
100000000000000000000000200000000000,
|
|
100000000000000000000000100000100000,
|
|
100000000000000000000000200000000000,
|
|
100000000000200000000000200000000000,
|
|
100000000000200000000000200000000000,
|
|
300000000000000000000000100000000000,
|
|
100000000000200000000000200000000000,
|
|
100000000000000000000000200000000000,
|
|
100000000000100000000000100000000000,
|
|
300000000000000000000000000000000000,
|
|
|
|
|
|
#END
|
|
|
|
|
|
COURSE:Easy
|
|
LEVEL:3
|
|
BALLOON:10
|
|
SCOREINIT:780
|
|
SCOREDIFF:353
|
|
|
|
|
|
#START
|
|
|
|
|
|
#MEASURE 3/4
|
|
#GOGOSTART
|
|
#SCROLL 0.5
|
|
100000000000000000000000000000000000,
|
|
200000000000000000000000000000000000,
|
|
100000000000000000000000100000000000,
|
|
100000000000000000000000000000000000,
|
|
100000000000000000000000000000000000,
|
|
200000000000000000000000000000000000,
|
|
100000000000000000000000100000000000,
|
|
100000000000000000000000000000000000,
|
|
100000000000000000000000000000000000,
|
|
200000000000000000000000000000000000,
|
|
100000000000100000000000100000000000,
|
|
300000000000000000000000000000000000,
|
|
100000000000000000000000000000000000,
|
|
100000000000000000000000000000000000,
|
|
700000000000000000000000000000000000,
|
|
000000000000000000000000800000000000,
|
|
000000000000000000000000000000000000,
|
|
000000000000000000000000000000000000,
|
|
#GOGOEND
|
|
000000000000000000000000000000000000,
|
|
000000000000000000000000000000000000,
|
|
100000000000000000000000000000000000,
|
|
200000000000000000000000000000000000,
|
|
100000000000000000000000100000000000,
|
|
100000000000000000000000000000000000,
|
|
100000000000000000000000000000000000,
|
|
200000000000000000000000000000000000,
|
|
100000000000000000000000100000000000,
|
|
100000000000000000000000000000000000,
|
|
100000000000000000000000000000000000,
|
|
200000000000000000000000000000000000,
|
|
100000000000000000000000100000000000,
|
|
100000000000000000000000100000000000,
|
|
100000000000000000000000100000000000,
|
|
100000000000000000000000000000000000,
|
|
500000000000000000000000800000000000,
|
|
000000000000000000000000000000000000,
|
|
100000000000000000000000000000000000,
|
|
200000000000000000000000000000000000,
|
|
100000000000000000000000100000000000,
|
|
100000000000000000000000000000000000,
|
|
100000000000000000000000000000000000,
|
|
200000000000000000000000000000000000,
|
|
100000000000000000000000100000000000,
|
|
100000000000000000000000000000000000,
|
|
100000000000000000000000000000000000,
|
|
100000000000100000000000100000000000,
|
|
300000000000000000000000000000000000,
|
|
100000000000000000000000000000000000,
|
|
100000000000000000000000100000000000,
|
|
100000000000000000000000000000000000,
|
|
500000000000000000000000800000000000,
|
|
000000000000000000000000000000000000,
|
|
100000000000000000000000100000000000,
|
|
100000000000000000000000000000000000,
|
|
100000000000000000000000100000000000,
|
|
100000000000000000000000000000000000,
|
|
200000000000000000000000000000000000,
|
|
200000000000000000000000200000000000,
|
|
200000000000000000000000000000000000,
|
|
000000000000000000000000000000000000,
|
|
100000000000000000000000100000000000,
|
|
100000000000000000000000100000000000,
|
|
100000000000000000000000000000000000,
|
|
100000000000000000000000100000000000,
|
|
100000000000000000000000000000000000,
|
|
100000000000000000000000100000000000,
|
|
100000000000000000000000100000000000,
|
|
100000000000000000000000100000000000,
|
|
100000000000100000000000100000000000,
|
|
300000000000000000000000000000000000,
|
|
#GOGOSTART
|
|
100000000000000000000000000000000000,
|
|
100000000000000000000000000000000000,
|
|
100000000000000000000000200000000000,
|
|
200000000000000000000000000000000000,
|
|
100000000000000000000000000000000000,
|
|
100000000000100000000000100000000000,
|
|
100000000000000000000000200000000000,
|
|
200000000000000000000000000000000000,
|
|
100000000000000000000000100000000000,
|
|
100000000000000000000000000000000000,
|
|
100000000000100000000000100000000000,
|
|
300000000000000000000000100000000000,
|
|
100000000000000000000000100000000000,
|
|
100000000000000000000000000000000000,
|
|
500000000000000000000000000000000000,
|
|
#GOGOEND
|
|
800000000000000000000000000000000000,
|
|
000000000000000000000000000000000000,
|
|
100000000000000000000000000000000000,
|
|
200000000000000000000000000000000000,
|
|
100000000000000000000000100000000000,
|
|
100000000000000000000000000000000000,
|
|
100000000000000000000000000000000000,
|
|
200000000000000000000000000000000000,
|
|
100000000000000000000000100000000000,
|
|
100000000000000000000000000000000000,
|
|
100000000000000000000000100000000000,
|
|
100000000000100000000000000000000000,
|
|
100000000000100000000000100000000000,
|
|
100000000000000000000000000000000000,
|
|
100000000000000000000000100000000000,
|
|
100000000000000000000000000000000000,
|
|
100000000000100000000000100000000000,
|
|
300000000000000000000000000000000000,
|
|
|
|
|
|
#END
|
|
|