Files
2023-01-17 00:45:18 -05:00

202 lines
2.0 KiB
Plaintext

//TJADB Project
TITLE:Kiseki
TITLEJA:キセキ
SUBTITLE:--GReeeeN/ROOKIES
SUBTITLEJA:ドラマ「ROOKIES」より
BPM:90
WAVE:Kiseki.ogg
OFFSET:-2.827
DEMOSTART:66.660
COURSE:Oni
LEVEL:2
BALLOON:9
SCOREINIT:1150
SCOREDIFF:388
#START
11,
10001110,
11,
10101011,
1010200110102000,
1010200110102000,
1010200110102000,
10000011,
2001101020002010,
1010200110102000,
1010200110102010,
10222011,
2001101020002010,
1010200110102000,
10211020,
1000000000012010,
1001201010012010,
1010201000102011,
1010201000102011,
1010201120012010,
1001201010012010,
11210120,
11210120,
1000100010101111,//24
#GOGOSTART
11211020,
11221020,
1010201010220011,
2011201120001110,
1000400040001110,
1000300030002110,
1000211010002000,
1010101170000000,//32
#GOGOEND
8,
#END
COURSE:Hard
LEVEL:3
BALLOON:8
SCOREINIT:1190
SCOREDIFF:450
#START
11,
10001011,
11,
10001011,
1212,
10201022,
10201022,
10000011,
20112012,
1000101100000010,
11202021,
11211011,
20112012,
1000101100000010,
11211020,
1000000000001110,
20212020,
11210020,
11210121,
10211021,
20212020,
11210120,
11210120,
1000100010101110,//24
#GOGOSTART
11211020,
11221020,
1010200020220010,
1000100010001110,
1000400040001110,
1000400040001110,
1000111010002011,
1170,//32
#GOGOEND
8,
,
#END
COURSE:Normal
LEVEL:2
BALLOON:6
SCOREINIT:1390
SCOREDIFF:990
#START
11,
1011,
11,
1110,
11,
1011,
11,
1,
11,
1110,
1120,
1120,
11,
1110,
1110,
1,
1212,
1200,
1200,
1220,
1212,
1100,
1100,
1110,//24
#GOGOSTART
11101020,
11101020,
11101100,
3331,
1441,
1441,
1112,
1170,//32
#GOGOEND
8,
,
#END
COURSE:Easy
LEVEL:3
BALLOON:4
SCOREINIT:1260
SCOREDIFF:1038
#START
1,
1,
11,
11,
1200,
1200,
33,
3,
1011,
11,
1110,
1110,
11,
1110,
1110,
1,
0202,
0202,
0202,
0220,
0202,
0202,
0200,
1133,//24
#GOGOSTART
1110,
1110,
1111,
3330,
0440,
0440,
1011,
1170,//32
#GOGOEND
8,
,
#END