forked from ESE/ESE
310 lines
13 KiB
Plaintext
310 lines
13 KiB
Plaintext
//TJADB Project
|
|
TITLE:Koko ni Iru ze!
|
|
TITLEJA:ここにいるぜぇ!
|
|
SUBTITLE:--Morning Musume/Robby and Kerobby
|
|
BPM:210.980
|
|
WAVE:Koko ni Iru ze!.ogg
|
|
OFFSET:-2.579
|
|
DEMOSTART:64.003
|
|
|
|
COURSE:Oni
|
|
LEVEL:7
|
|
BALLOON:6,6,6,6,6,6,6,6,6
|
|
|
|
|
|
#START
|
|
|
|
|
|
200000000000200000000000200000200000200000000000,
|
|
200000200000200000200000200000200000200000000000,
|
|
100000100000100000100000100000100000100000100000,
|
|
300000000000100000100000100000100000100000000000,
|
|
700000000000000000000000000000800000100000100000,
|
|
000000000000000000100000100000100000100000000000,
|
|
700000000000000000000000000000800000100000100000,
|
|
000000000000200000200000200000200000200000000000,
|
|
700000000000000000000000000000800000100000100000,
|
|
000000000000100000100000200000100000100000200000,
|
|
100000000000000000100000000000000000100000000000,
|
|
100000001000000010000000300000000000000000000000,
|
|
100000000000100000000000100000000000100000000000,
|
|
100000100000000000100000000000000000000000000000,
|
|
100000100000200000100000100000200000100000100000,
|
|
200000100000100000200000100000100000200000000000,
|
|
100000000000100000000000100000000000100000000000,
|
|
100000100000000000100000000000000000000000000000,
|
|
100000100000200000100000100000200000100000100000,
|
|
200000100000100000200000100000100000200000000000,
|
|
100000200000200000100000000000100000200000000000,
|
|
100000200000200000100000000000100000200000000000,
|
|
100000200000200000100000000000100000200000000000,
|
|
100000000000000000000000000000000000000000000000,
|
|
100000200000200000100000000000100000200000000000,
|
|
100000200000200000100000000000100000200000000000,
|
|
100000200000200000100000000000100000100000200000,
|
|
000000200000200000000000200000000000200000000000,
|
|
100000200000200000100000000000100000200000200000,
|
|
100000200000200000100000000000100000200000200000,
|
|
100000200000200000100000000000100000200000200000,
|
|
100000000000000000000000000000000000000000000000,
|
|
100000200000200000100000000000100000200000200000,
|
|
100000200000200000100000000000100000100000000000,
|
|
500000000000000000000000000000000000000000000008,
|
|
000000000000100000000000100000000000100000000000,
|
|
500000000000000000000008000000000000100000100000,
|
|
000000000000100000000000100000000000100000100000,
|
|
200000100000100000200000000000000000000000000000,
|
|
000000000000100000000000100000000000100000000000,
|
|
300000000000200000000000300000000000200000000000,
|
|
300000000000000000100000100000000000100000000000,
|
|
000000000000100000000000000000000000000000000000,
|
|
000000000000000000200000000000200000200000000000,
|
|
100000000000200000200000100000000000200000200000,
|
|
100000000000000000100000100000000000100000000000,
|
|
300000000000200000000000300000000000200000000000,
|
|
300000000000000000000000200200200200200000000000,
|
|
100000200000200000100000000000200000100000000000,
|
|
100000200000200000100000000000200000100000000000,
|
|
100000000000000000300000000000000000000000000000,
|
|
100000000000000000300000000000000000000000000000,
|
|
100000000000000000300000000000000000300000000000,
|
|
000000000000100000100000100000100000100000000000,
|
|
700000000000000000000000000000800000100000100000,
|
|
000000000000000000000000100000100000100000000000,
|
|
700000000000000000000000000000800000100000100000,
|
|
000000000000200000200000200000200000200000000000,
|
|
700000000000000000000000000000800000100000100000,
|
|
000000000000100000000000100000000000100000100000,
|
|
000000100000100000000000000000000000000000000000,
|
|
000000000000100000100000100000100000100000000000,
|
|
700000000000000000000000000000800000100000100000,
|
|
000000000000000000100000100000100000100000000000,
|
|
700000000000000000000000000000800000100000100000,
|
|
000000000000200000200000200000200000200000000000,
|
|
700000000000000000000000000000800000100000100000,
|
|
000000000000100000100000200000100000100000200000,
|
|
100000000000000000100000000000000000100000000000,
|
|
300000003000000030000000300000000000000000000000,
|
|
|
|
|
|
#END
|
|
|
|
|
|
COURSE:Hard
|
|
LEVEL:5
|
|
SCOREINIT:830
|
|
SCOREDIFF:200
|
|
|
|
|
|
#START
|
|
|
|
|
|
200000000000200000000000200000200000200000000000,
|
|
200000200000200000000000200000200000200000000000,
|
|
100000100000100000100000100000100000100000100000,
|
|
300000000000100000100000100000100000100000000000,
|
|
500000000000000000000800000000000000100000100000,
|
|
000000000000000000100000100000100000100000000000,
|
|
500000000000000000000800000000000000100000100000,
|
|
000000000000200000200000200000200000200000000000,
|
|
500000000000000000000800000000000000100000100000,
|
|
000000000000100000100000200000100000100000200000,
|
|
100000000000000000100000000000000000100000000000,
|
|
100000001000000010000000300000000000000000000000,
|
|
100000000000100000000000100000000000100000000000,
|
|
100000100000000000100000000000000000000000000000,
|
|
100000000000100000100000000000100000100000000000,
|
|
100000100000000000100000100000100000100000000000,
|
|
100000000000100000000000100000000000100000000000,
|
|
100000100000000000100000000000000000000000000000,
|
|
100000000000100000100000000000100000100000000000,
|
|
100000100000000000100000100000100000100000000000,
|
|
100000100000200000100000000000100000200000000000,
|
|
100000100000200000100000000000100000200000000000,
|
|
100000100000200000100000000000100000200000000000,
|
|
100000000000000000000000000000000000000000000000,
|
|
100000100000200000100000000000100000200000000000,
|
|
100000100000200000100000000000100000200000000000,
|
|
100000100000200000100000000000100000100000200000,
|
|
000000200000200000000000200000000000200000000000,
|
|
100000100000200000100000000000100000200000000000,
|
|
100000100000200000100000000000100000200000000000,
|
|
100000100000200000100000000000100000200000000000,
|
|
100000000000000000000000000000000000000000000000,
|
|
100000100000200000100000000000100000200000000000,
|
|
100000100000200000100000000000100000100000000000,
|
|
500000000000000000000000000000000000000000000800,
|
|
000000000000100000000000100000000000100000000000,
|
|
500000000000000000000800000000000000100000100000,
|
|
000000000000100000000000100000000000100000200000,
|
|
100000200000100000100000000000000000000000000000,
|
|
000000000000100000000000100000000000100000000000,
|
|
300000000000200000000000300000000000200000000000,
|
|
300000000000000000100000100000000000100000000000,
|
|
000000000000100000000000000000000000000000000000,
|
|
000000000000000000200000000000200000200000000000,
|
|
100000000000200000200000100000000000200000200000,
|
|
100000000000000000100000100000000000100000000000,
|
|
300000000000200000000000300000000000200000000000,
|
|
300000000000000000000000000000000000000000000000,
|
|
100000100000200000100000000000200000100000000000,
|
|
100000100000200000100000000000200000100000000000,
|
|
100000000000000000300000000000000000000000000000,
|
|
100000000000000000300000000000000000000000000000,
|
|
100000000000000000300000000000000000300000000000,
|
|
000000000000100000100000100000100000100000000000,
|
|
500000000000000000000800000000000000100000100000,
|
|
000000000000000000000000100000100000100000000000,
|
|
500000000000000000000800000000000000100000100000,
|
|
000000000000200000200000200000200000200000000000,
|
|
500000000000000000000800000000000000100000100000,
|
|
000000000000100000000000100000000000100000100000,
|
|
000000100000100000000000000000000000000000000000,
|
|
000000000000100000100000100000100000100000000000,
|
|
500000000000000000000800000000000000100000100000,
|
|
000000000000000000100000100000100000100000000000,
|
|
500000000000000000000800000000000000100000100000,
|
|
000000000000200000200000200000200000200000000000,
|
|
500000000000000000000800000000000000100000100000,
|
|
000000000000100000100000200000100000100000200000,
|
|
100000000000000000100000000000000000100000000000,
|
|
100000001000000010000000300000000000000000000000,
|
|
|
|
|
|
#END
|
|
|
|
|
|
COURSE:Normal
|
|
LEVEL:5
|
|
SCOREINIT:1070
|
|
SCOREDIFF:300
|
|
|
|
|
|
#START
|
|
|
|
|
|
200000000000000000000000200000000000000000000000,
|
|
200000000000200000000000200000000000200000000000,
|
|
100000000000100000000000100000000000100000000000,
|
|
300000000000100000000000100000000000100000000000,
|
|
500000000000000000800000000000000000100000000000,
|
|
100000000000000000000000100000000000100000000000,
|
|
500000000000000000800000000000000000100000000000,
|
|
100000000000000000000000100000000000100000000000,
|
|
500000000000000000800000000000000000100000000000,
|
|
100000000000000000000000100000000000100000000000,
|
|
100000000000000000100000000000000000100000000000,
|
|
000010000000100000100000000030000000000000000000,
|
|
100000000000100000000000100000000000100000000000,
|
|
100000100000000000100000000000000000000000000000,
|
|
100000000000100000000000000000000000100000000000,
|
|
100000000000000000000000100000000000100000000000,
|
|
100000000000100000000000100000000000100000000000,
|
|
100000100000000000100000000000000000000000000000,
|
|
100000000000100000000000000000000000100000000000,
|
|
100000000000000000000000100000000000100000000000,
|
|
100000000000100000100000000000000000100000000000,
|
|
100000000000100000100000000000000000100000000000,
|
|
100000000000100000100000000000000000100000000000,
|
|
100000000000000000000000000000000000000000000000,
|
|
100000000000100000100000000000000000100000000000,
|
|
100000000000100000100000000000000000100000000000,
|
|
100000000000100000100000000000000000100000000000,
|
|
300000000000000000000000000000000000000000000000,
|
|
200000000000100000100000000000000000100000000000,
|
|
200000000000100000100000000000000000100000000000,
|
|
200000000000100000100000000000000000100000000000,
|
|
200000000000000000000000000000000000000000000000,
|
|
200000000000100000100000000000000000100000000000,
|
|
200000000000100000100000000000000000100000000000,
|
|
500000000000000000000000000000000000000000800000,
|
|
000000000000100000000000100000000000100000000000,
|
|
500000000000000000800000000000000000100000000000,
|
|
100000000000000000000000100000000000100000000000,
|
|
000000000000100000000000100000000000000000000000,
|
|
000000000000100000000000100000000000100000000000,
|
|
300000000000000000000000300000000000000000000000,
|
|
300000000000000000000000100000000000100000000000,
|
|
000000000000100000000000000000000000000000000000,
|
|
000000000000000000000000000000000000000000000000,
|
|
100000000000000000000000100000000000000000000000,
|
|
100000000000000000000000100000000000100000000000,
|
|
300000000000000000000000300000000000000000000000,
|
|
300000000000000000000000000000000000000000000000,
|
|
100000000000100000100000000000000000100000000000,
|
|
100000000000100000100000000000000000100000000000,
|
|
100000000000000000300000000000000000000000000000,
|
|
100000000000000000300000000000000000000000000000,
|
|
100000000000000000300000000000000000300000000000,
|
|
000000000000100000000000100000000000100000000000,
|
|
500000000000000000800000000000000000100000000000,
|
|
100000000000000000000000100000000000100000000000,
|
|
500000000000000000800000000000000000100000000000,
|
|
100000000000000000000000100000000000100000000000,
|
|
500000000000000000800000000000000000100000000000,
|
|
100000000000000000000000100000000000100000000000,
|
|
000000000000100000000000100000000000000000000000,
|
|
000000000000100000000000100000000000100000000000,
|
|
500000000000000000800000000000000000100000000000,
|
|
100000000000000000000000100000000000100000000000,
|
|
500000000000000000800000000000000000100000000000,
|
|
100000000000000000000000100000000000100000000000,
|
|
500000000000000000800000000000000000100000000000,
|
|
100000000000000000000000100000000000100000000000,
|
|
100000000000000000100000000000000000100000000000,
|
|
000010000000100000100000000030000000000000000000,
|
|
|
|
|
|
#END
|
|
|
|
|
|
COURSE:Easy
|
|
LEVEL:4
|
|
SCOREINIT:1400
|
|
SCOREDIFF:560
|
|
|
|
|
|
#START
|
|
|
|
|
|
#BPMCHANGE 105.5
|
|
200000000000200000000000200000000000200000000000,
|
|
100000000000100000000000300000000000000000000000,
|
|
500000000000000800000000000000000000100000000000,
|
|
500000000000000800000000000000000000100000000000,
|
|
500000000000000800000000000000000000100000000000,
|
|
100000000100000000100000000000000000300000000000,
|
|
100000000000100000000000100000000000000000000000,
|
|
100000000000200000000000100000000000200000000000,
|
|
100000000000100000000000100000000000000000000000,
|
|
100000000000200000000000100000000000200000000000,
|
|
100000100000100000000000100000100000100000000000,
|
|
100000100000100000000000300000000000000000000000,
|
|
100000100000100000000000100000100000100000000000,
|
|
100000100000100000000000300000000000000000000000,
|
|
200000200000200000000000200000200000200000000000,
|
|
200000200000200000000000400000000000000000000000,
|
|
100000100000100000000000100000100000100000000000,
|
|
500000000000000000000800000000000000100000000000,
|
|
500000000800000000000000100000000000100000000000,
|
|
100000000000000000000000100000000000100000000000,
|
|
300000000000300000000000300000000000100000000000,
|
|
100000000000000000000000000000000000000000000000,
|
|
100000000000100000000000100000000000100000000000,
|
|
300000000000300000000000300000000000000000000000,
|
|
100000000000200000000000100000000000200000000000,
|
|
100000000300000000000000100000000300000000000000,
|
|
100000000300000000300000000000000000100000000000,
|
|
500000000000000800000000000000000000100000000000,
|
|
500000000000000800000000000000000000100000000000,
|
|
500000000000000800000000000000000000100000000000,
|
|
100000000000100000000000000000000000100000000000,
|
|
500000000000000800000000000000000000100000000000,
|
|
500000000000000800000000000000000000100000000000,
|
|
500000000000000800000000000000000000100000000000,
|
|
100000000100000000100000000000000000300000000000,
|
|
|
|
|
|
#END
|
|
|