Files
2023-06-15 19:15:39 -05:00

297 lines
8.8 KiB
Plaintext

//TJADB Project
TITLE:Konayuki
TITLEJA:粉雪
SUBTITLE:--Remioromen
BPM:82
WAVE:Konayuki.ogg
OFFSET:-11.778
DEMOSTART:119.681
COURSE:Oni
LEVEL:6
SCOREINIT:680
SCOREDIFF:185
#START
1010201020101202,
1010201020101202,
1010201020101202,
1010201020111111,
1010201020111202,
#BPMCHANGE 81.62
1010201020111202,
#BPMCHANGE 82.18
1111201011112011,
#BPMCHANGE 82.07
0110201020111202,
1010201020111202,
#BPMCHANGE 82.24
1010201020111202,
#BPMCHANGE 81.71
1111201011112011,
#BPMCHANGE 81.39
1110000000111102,
#BPMCHANGE 82.44
0110201120102011,
#BPMCHANGE 81.95
2011110111010110,
#BPMCHANGE 82.38
1010201020101202,
#BPMCHANGE 82
1010201020101202,
1010201111102022,
1010201111102000,
1010201122102022,
1010201122102000,
1010201111102022,
1010201111102000,
1010201122102022,
1010201122102000,
1010201022102010,
1010201022102010,
1010201120101010,
21212121,
2220102220102211,
21212121,
2211102211102110,
12121212,
2220102220102211,
2011201010112011,
21120112,
1120202120201020,
1111201122101111,
#GOGOSTART
2010201122112011,
1010201122112211,
1010201122111122,
2000303001100000,
1122202100112221,
0011101200221122,
0010102022112211,
#GOGOEND
2,
#END
COURSE:Hard
LEVEL:6
SCOREINIT:740
SCOREDIFF:218
#START
100000100000200000000000200000100000100200000000,
100000100000200000000000200000100000100200000000,
100000100000200000000000200000100000100200000000,
100000100000200000000000200000100000100100100100,
100000100000100000000000200000200000200200000200,
#BPMCHANGE 81.62
100000100000100000000000200000200000200200000200,
#BPMCHANGE 82.18
100000100000200000100000100000100000200000100100,
#BPMCHANGE 82.07
000100100000000000000000000000000000000000000000,
100000100000100000000000200000200000200200000200,
#BPMCHANGE 82.24
100000100000100000000000200000200000200200000200,
#BPMCHANGE 81.71
100000100000200000100000100000100000200000100100,
#BPMCHANGE 81.39
100100100000000000000000000000100100100100000100,
#BPMCHANGE 82.44
000000100100000000000000000000000000000000000000,
#BPMCHANGE 81.95
000000100100100100000100100100000100000100100000,
#BPMCHANGE 82.38
100000100000200000000000200000100000100200000000,
#BPMCHANGE 82
100000100000200000000000200000100000100200000000,
100000100000200000100000100100100000200000000000,
100000100000200000100000100100100000200000000000,
100000100000200000100000200200200000200000000000,
100000100000200000100000200200200000200000000000,
100000100000200000100000100100100000200000000000,
100000100000200000100000100100100000200000000000,
100000100000200000100000200200200000200000000000,
100000100000200000100000200200200000200000000000,
100000100000200000100000100000100000200000000000,
100000100000200000100000100000100000200000000000,
100000100000200000100100100000100000100000100000,
100000100000200000000000100000100000200000200000,
200200200000100000200200200000100000100000000000,
100000100000200000000000100000100000200000200000,
100100100000200000100100100000200000000000000000,
100000100000200000100000100100100000200000000000,
100000100000200000100000100100100000200000100100,
100000100000100000100100100000100000100000100100,
100000100000100000200000100000200000200000200000,
500000000000000000000000000000000008000000000000,
300000000000000000000000400000000000000000000000,
#GOGOSTART
100000100000200000100000100100100000200000100100,
100000100000200000100100100100100000200000000000,
100000100000200000100000100100100000200000100100,
100000000000300000300000000000300000000000000000,
100000100000200000100000100100100000200000100100,
100000100000200000100100100100100000200000100100,
100000100000200000100100100000200000100100100100,
#GOGOEND
100000000000000000000000000000000000000000000000,
#END
COURSE:Normal
LEVEL:4
BALLOON:6
SCOREINIT:930
SCOREDIFF:340
#START
100000000000200000000000100000000000200000000000,
100000000000200000000000100000000000000000000000,
100000000000200000000000100000000000200000000000,
100000000000200000000000100000000000000000000000,
100000000000200000000000100000100000200000000000,
#BPMCHANGE 81.62
100000000000200000000000100000100000200000000000,
#BPMCHANGE 82.18
100000000000100000000000200000000000200000000000,
#BPMCHANGE 82.07
300000000000000000000000000000000000000000000000,
100000000000200000000000100000100000200000000000,
#BPMCHANGE 82.24
100000000000200000000000100000100000200000000000,
#BPMCHANGE 81.71
100000000000100000000000200000000000200000000000,
#BPMCHANGE 81.39
300000000000000000000000000000100000100000000000,
#BPMCHANGE 82.44
100000000000000000000000000000000000000000000000,
#BPMCHANGE 81.95
000000100000100000000000100000000000100000100000,
#BPMCHANGE 82.38
000000000000000000000000000000000000000000000000,
#BPMCHANGE 82
000000000000000000000000000000000000000000000000,
100000000000200000000000100000100000200000000000,
100000000000200000000000100000100000200000000000,
100000100000100000000000200000200000200000000000,
300000000000000000000000000000000000000000000000,
100000000000200000000000100000100000200000000000,
100000000000200000000000100000100000200000000000,
100000100000100000000000200000200000200000000000,
300000000000000000000000000000100000100000000000,
100000000000000000000000000000000000000000000000,
000000100000100000000000100000000000100000100000,
000000000000000000000000100000100000100000100000,
100000000000200000000000100000100000200000000000,
200200200000000000200200200000000000000000000000,
100000000000100000000000200000000000200000000000,
100000100000100000100000100000100000000000000000,
100000000000100000000000200000000000200000000000,
100000000000100000000000200000000000200000000000,
100000100000100000100000100000100000100000100000,
100000000000000000000000000000100000100000100000,
700000000000000000000000000000000000800000000000,
500000000000000000000000000000000008000000000000,
#GOGOSTART
100000000000200000000000100000100000200000100000,
100000000000200000000000100000100000100000100000,
100000000000200000000000100000100000200000100000,
100000000000300000300000000000300000000000000000,
100000000000200000000000100000100000200000100000,
100000000000200000000000100000100000100000100000,
100000000000200000000000100000100000100000100000,
#GOGOEND
400000000000000000000000000000000000000000000000,
#END
COURSE:Easy
LEVEL:3
BALLOON:4
SCOREINIT:1000
SCOREDIFF:640
#START
100000000000000000000000100000000000000000000000,
100000000000100000000000100000000000000000000000,
100000000000000000000000100000000000000000000000,
100000000000100000000000100000000000000000000000,
100000000000000000000000200000000000000000000000,
#BPMCHANGE 81.62
100000000000100000000000200000000000000000000000,
#BPMCHANGE 82.18
100000000000000000000000200000000000000000000000,
#BPMCHANGE 82.07
300000000000000000000000000000000000000000000000,
100000000000000000000000200000000000000000000000,
#BPMCHANGE 82.24
100000000000100000000000200000000000000000000000,
#BPMCHANGE 81.71
100000000000000000000000200000000000000000000000,
#BPMCHANGE 81.39
300000000000000000000000000000000000000000000000,
#BPMCHANGE 82.44
100000000000100000000000100000000000000000000000,
#BPMCHANGE 81.95
100000000000100000000000100000000000100000000000,
#BPMCHANGE 82.38
100000000000000000000000000000000000000000000000,
#BPMCHANGE 82
000000000000000000000000000000000000000000000000,
100000000000000000000000200000000000000000000000,
100000000000100000000000200000000000000000000000,
100000000000000000000000200000000000000000000000,
300000000000000000000000000000000000000000000000,
100000000000000000000000200000000000000000000000,
100000000000100000000000200000000000000000000000,
100000000000000000000000200000000000000000000000,
300000000000000000000000000000000000000000000000,
100000000000100000000000100000000000000000000000,
100000000000100000000000100000000000100000000000,
100000000000000000000000000000000000000000000000,
100000000000000000000000100000000000000000000000,
200000200000000000200000200000000000000000000000,
100000000000100000000000200000000000000000000000,
200000000000100000000000100000000000000000000000,
100000000000000000000000100000000000000000000000,
200000000000200000000000200000000000000000000000,
100000000000100000000000100000000000100000000000,
100000000000000000000000000000000000000000000000,
700000000000000000000000000000000000800000000000,
500000000000000000000000000000000008000000000000,
#GOGOSTART
300000000000000000000000400000000000000000000000,
100000000000200000000000100000000000200000000000,
100000000000000000000000100000000000100000000000,
100000000000500000000000000000000008000000000000,
300000000000000000000000400000000000000000000000,
100000000000200000000000100000000000200000000000,
100000000000000000000000100000000000100000000000,
#GOGOEND
400000000000000000000000000000000000000000000000,
#END