Files
ESE-ja-fix/01 Pop/LOVE Machine/LOVE Machine -Old Audio-.tja
2023-06-15 19:15:39 -05:00

409 lines
5.6 KiB
Plaintext

//TJADB Project
TITLE:LOVE Machine -Old Audio-
TITLEJA:LOVEマシーン -Old Audio-
SUBTITLE:--Morning Musume
BPM:132
WAVE:LOVE Machine -Old Audio-.ogg
OFFSET:-13.604
DEMOSTART:66.708
COURSE:Oni
LEVEL:5
SCOREINIT:930
SCOREDIFF:283
#START
20000000,
#BPMCHANGE 131.7
20000000,
#BPMCHANGE 131
00100010,
00100011,
00100010,
20000000,
00100010,
00100011,
00100010,
20000000,
#BRANCHSTART p,75,90
#SECTION
#N
01101000,//11
01101000,//12
01101001,//13
01111111,//14
01101000,//15
01101000,//16
01101003,//17
00000000,//18
#E
01101020,//11
01101020,//12
01101001,//13
01111111,//14
01111020,//15
01111020,//16
01111003,//17
00000000,//18
#M
0010102011011011,//11
0010102011011011,//12
01121021,//13
01121111,//14
0010102011011011,//15
0010102011011011,//16
01121012,//17
00000000,//18
#BRANCHSTART p,75,90
#SECTION
#N
01101020,//19
01101020,//20
01101001,//21
01111111,//22
01101020,//23
01101020,//24
01101001,//25
01111111,//26
10000000,//27
00000110,//28
10000000,//29
20000000,//30
#E
01111220,//19
01111220,//20
01111021,//21
01111111,//22
01111220,//23
01111220,//24
01111021,//25
01111111,//26
10000000,//27
2202202200101000,//28
10000000,//29
2202202202202000,//30
#M
0010102011011012,//19
0010102011011012,//20
01121011,//21
01121111,//22
0010102011011012,//23
0010102011011012,//24
01121011,//25
01121112,//26
10000000,//27
2202202200101000,//28
10000000,//29
2202202202202000,//30
#BRANCHSTART p,75,90
#SECTION
#N
20101100,//31
20101100,//32
20101100,//33
20101100,//34
20101100,//35
20101100,//36
20101100,//37
20000000,//38
00202000,//39
00200000,//40
10101105,//41
00000080,//42
10101000,//43
#E
00101102,//31
01101102,//32
11101101,//33
03000000,//34
00101102,//35
01101102,//36
11101101,//37
03000000,//38
00202000,//39
00200220,//40
10101105,//41
00000080,//42
10101000,//43
#M
1010101110102010,//31
0020101110102010,//32
1010101010111010,//33
03000000,//34
1010101110102010,//35
0020101110102010,//36
1000200010111010,//37
03000111,//38
10202111,//39
10202200,//40
10101105,//41
00000080,//42
10101022,//43
#BRANCHSTART p,75,90
#SECTION
#N
#GOGOSTART
00200020,//44
10101010,//45
00200020,//46
10101010,//47
00200020,//48
10101010,//49
20000110,//50
50000800,//51
20000000,//52
20000000,//53
#GOGOEND
#E
#GOGOSTART
10101122,//44
10101010,//45
10101122,//46
10101010,//47
10101122,//48
10101010,//49
20110110,//50
50000080,//51
20000000,//52
20000000,//53
#GOGOEND
#M
#GOGOSTART
1000100210102020,//44
1011101010111010,//45
1000100210102020,//46
1011101010111010,//47
1000100210102020,//48
1011101010111010,//49
20110110,
50000080,
2202202202202000,
2202202202202000,
#GOGOEND
#BRANCHEND
#END
COURSE:Hard
LEVEL:5
SCOREINIT:840
SCOREDIFF:258
#START
2202202200002000,//1
2202202200002000,//2
00100111,//3
0000100000101110,//4
00100110,//5
2202202200002000,//6
00100110,//7
0000100000101110,//8
00100110,//9
2202202200002000,//10
01121001,//11
02112020,//12
01121021,//13
02121212,//14
01121001,//15
02112000,//16
01121011,//17
00000000,//18
01121001,//19
02112020,//20
01121021,//21
02121212,//22
01121001,//23
02112020,//24
01121021,//25
02121212,//26
30000000,//27
2202202200101000,//28
30000000,//29
2202202200002000,//30
1010101110100010,//31
0020101110100010,//32
1000201010111010,//33
03000000,//34
1010101110100010,//35
0020101110100010,//36
1000201010111010,//37
03000333,//38
10202111,//39
10202200,//40
10101105,//41
00000080,//42
10101000,//43
#GOGOSTART
10102011,//44
30303030,//45
10101011,//46
40404040,//47
10102011,//48
30303030,//49
20110110,//50
50000080,//51
2202202202202000,//52
2202202202202000,//53
#GOGOEND
00000000,//54
00000000,//55
#END
COURSE:Normal
LEVEL:5
SCOREINIT:970
SCOREDIFF:345
#START
20000000,//1
20000000,//2
00100110,//3
00100111,//4
00100110,//5
20000000,//6
00100110,//7
00100111,//8
00100110,//9
20000000,//10
01101000,//11
01102020,//12
01101001,//13
01101111,//14
01101000,//15
01102020,//16
01111003,//17
00000000,//18
01101000,//19
01102020,//20
01101001,//21
01101111,//22
01101001,//23
01102020,//24
01101001,//25
01101010,//26
30000000,//27
2202202200000000,//28
30000000,//29
2202202200000000,//30
00101102,//31
01101100,//32
11101101,//33
03000000,//34
00101102,//35
01101100,//36
10001001,//37
03000000,//38
00202000,//39
00200220,//40
10101105,//41
00000800,//42
10101000,//43
#GOGOSTART
10001120,//44
30303030,//45
10001120,//46
30303030,//47
10001120,//48
30303030,//49
20000110,//50
50000800,//51
2202202200002000,//52
2202202200002000,//53
#GOGOEND
00000000,//54
00000000,//55
#END
COURSE:Easy
LEVEL:4
SCOREINIT:760
SCOREDIFF:320
#START
20000000,//1
20000000,//2
00100010,//3
00100011,//4
00100010,//5
20000000,//6
00100010,//7
00100011,//8
00100010,//9
20000000,//10
01101000,//11
01101000,//12
01101001,//13
01101010,//14
01101000,//15
01101000,//16
01101003,//17
00000000,//18
01101020,//19
01101020,//20
01101001,//21
01101010,//22
01101020,//23
01101020,//24
01101001,//25
01101010,//26
10000000,//27
00000110,//28
10000000,//29
20000000,//30
20101100,//31
20101100,//32
10101101,//33
00000000,//34
20101100,//35
20101100,//36
20002002,//37
00000000,//38
00202000,//39
00200000,//40
10101105,//41
00000800,//42
10101000,//43
#GOGOSTART
00200020,//44
30303030,//45
00200020,//46
30303030,//47
00200020,//48
30303030,//49
20000220,//50
50000800,//51
20000000,//52
20000000,//53
#GOGOEND
00000000,//54
00000000,//55
#END