Files
2023-06-15 19:00:23 -05:00

318 lines
9.7 KiB
Plaintext

//TJADB Project
TITLE:MOSKAU
TITLEJA:MOSKAU
SUBTITLE:--Dschinghis Khan
BPM:131.41
WAVE:MOSKAU.ogg
OFFSET:-2.024
DEMOSTART:76.889
COURSE:Oni
LEVEL:7
BALLOON:30
SCOREINIT:880
SCOREDIFF:160
#START
100000000000000000000000000000000000000000000000,
100000000000000000000000000000000000000000000000,
100000000000000000000000000000000000000000000000,
100000000000000000000000000000000000000000000000,
200000000000000000000000000000000000000000000000,
200000000000000000000000000000000000000000000000,
200000000000000000000000000000000000000000000000,
200000000000000000000000000000000000000000000000,
100000100000200000200000100000200000100000200000,
100000000000200000000000100000000000200000000000,
100000100000200000200000100000200000100000200000,
100000000000200000000000100000000000200000000000,
100000100000200000200000100000200000100000200000,
100000000000000000200000000000000000000000000000,
100000100000200000200000100000200000100000200000,
100000000000000000200000000000000000000000000000,
100000100100100000200000100000100100100000200000,
100000200200100000200000100000200200100000200000,
100000100100100000200000100000100100100000200000,
100000200200100000200000100000200200100000100000,
100000100100100000200000100000100100100000200000,
100000200200100000200000100000000100000000100000,
100000100000200000200000100000200000100000200000,
100000100000200000200000100000200000100000200000,
100000100100100000200000100000100100100000200000,
100000200200100000200000100000200200100000200000,
100000100100100000200000100000100100100000200000,
100000200200100000200000100000200200100000200000,
100000100100100000200000100000100100100000200000,
100000200200100000200000100000000100000000100000,
100000100000200000200000100000200000100000200000,
100000100000200000200000100000200000200000200000,
100000000000100000100100100000200200100000200000,
300000000000300000000200200000200000200000200000,
100000000000100000100100100000200200100000200000,
400000000000400000000200200000200000200000200000,
100000000000100000100100100000200200100000200000,
300000000000300000000200200000200000200000200000,
100000000000100000200000200000000000200000100000,
700000000000000000000000000000000000000000000000,
000000000000000000000000000000800000000000000000,
#GOGOSTART
300000000000400000000000300000000000400000000000,
100000000100200000100000100100200200100000200200,
100000000200100000200000200200100100200000200000,
100000200000200000200000100000000000200000000000,
300000000000400000000000300000000000400000000000,
100000000100200000100000100100200200100000200200,
100000000200100000200000200200100100200000200000,
100000200000200000200000100000000000200000000000,
300000000000400000000000300000000000400000000000,
100000000200200000100000100100200200100000200200,
100000000200100000200000200200100100200000200000,
200200100100200200100100100000000000200000000000,
300000000000400000000000300000000000400000000000,
100000000100200000100000100100200200100000200200,
100000000200100000200000200200100100200000200000,
#MEASURE 2/4
100100200200100100200200,
#GOGOEND
#MEASURE 4/4
100000000000000000000000000000000000000000000000,
#END
COURSE:Hard
LEVEL:6
BALLOON:24
SCOREINIT:670
SCOREDIFF:190
#START
100000000000000000000000000000000000000000000000,
100000000000000000000000000000000000000000000000,
100000000000000000000000000000000000000000000000,
100000000000000000000000000000000000000000000000,
200000000000000000000000000000000000000000000000,
200000000000000000000000000000000000000000000000,
200000000000000000000000000000000000000000000000,
200000000000000000000000000000000000000000000000,
100000100000200000200000100000200000100000200000,
100000000000200000000000100000000000200000000000,
100000100000200000200000100000200000100000200000,
100000000000200000000000100000000000200000000000,
100000100000200000200000100000200000100000200000,
100000000000000000200000000000000000000000000000,
100000100000200000200000100000200000100000200000,
100000000000000000200000000000000000000000000000,
100000100100100000200000100000100100100000100000,
100000000000000000000000100000000100000000100000,
100000100100100000200000100000100100100000100000,
100000000000000000000000100000000100000000100000,
100000100100100000200000100000100100100000100000,
100000000000000000000000100000000100000000100000,
100000100000200000200000100000100000200000200000,
100000100000200000200000100000100000200000200000,
100000100100100000200000100000100100100000100000,
100000000000000000000000100000000100000000100000,
100000100100100000200000100000100100100000100000,
100000000000000000000000100000000100000000100000,
100000100100100000200000100000100100100000100000,
100000000000000000000000100000000100000000100000,
100000100000200000200000100000100000200000200000,
100000100000200000200000100000100000200000200000,
100000000000100000000000100000100000100000000000,
400000000000400000000200200000200000200000200000,
100000000000100000000000100000100000100000000000,
400000000000400000000200200000200000200000200000,
100000000000100000000000100000100000100000000000,
400000000000400000000200200000200000200000200000,
200000000000200000100000100000000000100000200000,
700000000000000000000000000000000000000000000000,
000000000000000000000800000000000000000000000000,
#GOGOSTART
100000000000400000000000100000000000400000000000,
100000000100100000200000100000100000200000000000,
100000000100100000200000100000100000200000000000,
100000200000200000200000100000000000200000000000,
100000000000400000000000100000000000400000000000,
100000000100100000200000100000100000200000000000,
100000000100100000200000100000100000200000000000,
500000000000000000000080000000000000300000000000,
300000000000400000000000300000000000400000000000,
100000000100100000200000100100100000200000000000,
100000000100100000200000100100100000200000000000,
100000200000200000200000100000000000300000000000,
300000000000400000000000300000000000400000000000,
100000000100100000200000100100100000200000000000,
100000000100100000200000100100100000200000000000,
#MEASURE 2/4
100000200000200000200000,
#MEASURE 4/4
#GOGOEND
100000000000000000000000000000000000000000000000,
#END
COURSE:Normal
LEVEL:5
BALLOON:14
SCOREINIT:800
SCOREDIFF:340
#START
1,
,
1,
,
2,
,
2,
,
10010000,
,
10010000,
,
10010000,
20020000,
10010000,
20020000,
10010000,
10001001,
10110000,
10001001,
10220000,
11,
12,
12,
10010000,
00001001,
10110000,
10001001,
10220000,
11,
12,
12,
10101110,
40402220,
10101110,
40402220,
10101110,
40402220,
10111011,
7,
08,
#GOGOSTART
33,
10101110,
10102220,
1110,
33,
10101110,
10102220,
500000000000000000000008000000000000000000000000,
3434,
10111110,
10222220,
1110,
3434,
10111110,
10222220,
#MEASURE 2/4
500000000000000000000008,
#GOGOEND
#END
COURSE:Easy
LEVEL:3
BALLOON:8
SCOREINIT:830
SCOREDIFF:470
#START
100000000000000000000000000000000000000000000000,
000000000000000000000000000000000000000000000000,
100000000000000000000000000000000000000000000000,
000000000000000000000000000000000000000000000000,
200000000000000000000000000000000000000000000000,
000000000000000000000000000000000000000000000000,
200000000000000000000000000000000000000000000000,
000000000000000000000000000000000000000000000000,
100000000000000000100000000000000000000000000000,
000000000000000000000000000000000000000000000000,
100000000000000000100000000000000000000000000000,
000000000000000000000000000000000000000000000000,
100000000000000000100000000000000000000000000000,
200000000000000000000000000000000000000000000000,
100000000000000000100000000000000000000000000000,
200000000000000000000000000000000000000000000000,
100000000000000000100000000000000000000000000000,
000000000000000000000000100000000000000000000000,
100000000000000000000000000000000000000000000000,
000000000000000000000000100000000000000000000000,
100000000000000000000000000000000000000000000000,
000000000000000000000000100000000000000000000000,
100000000000000000000000200000000000000000000000,
100000000000000000000000200000000000000000000000,
100000000000000000100000000000000000000000000000,
000000000000000000000000100000000000000000000000,
100000000000000000000000000000000000000000000000,
000000000000000000000000100000000000000000000000,
100000000000000000000000000000000000000000000000,
000000000000000000000000100000000000000000000000,
100000000000000000000000200000000000000000000000,
100000000000000000000000200000000000000000000000,
100000000000100000000000100000000000000000000000,
200000000000200000000000000000000000000000000000,
100000000000100000000000100000000000000000000000,
200000000000200000000000000000000000000000000000,
100000000000100000000000100000000000000000000000,
200000000000200000000000000000000000000000000000,
100000000000000000000000100000000000000000000000,
700000000000000000000000000000000000000000000000,
000000000000800000000000000000000000000000000000,
#GOGOSTART
300000000000000000000000300000000000000000000000,
100000000000100000000000100000000000000000000000,
100000000000100000000000200000000000000000000000,
100000000000100000000000100000000000000000000000,
300000000000000000000000300000000000000000000000,
100000000000100000000000100000000000000000000000,
100000000000100000000000200000000000000000000000,
500000000000000000000080000000000000000000000000,
300000000000000000000000300000000000000000000000,
100000000000100000000000100000000000000000000000,
100000000000100000000000200000000000000000000000,
100000000000100000000000100000000000000000000000,
300000000000000000000000300000000000000000000000,
100000000000100000000000100000000000000000000000,
100000000000100000000000200000000000000000000000,
#MEASURE 2/4
500000000000000000000080,
#GOGOEND
#END