Files
2023-06-15 19:15:39 -05:00

222 lines
8.3 KiB
Plaintext

//TJADB Project
TITLE:Makenaide
TITLEJA:負けないで
SUBTITLE:--ZARD/Shiratori Reiko de Gozaimasu!
BPM:125
WAVE:Makenaide.ogg
OFFSET:-2.718
DEMOSTART:54.557
COURSE:Oni
LEVEL:2
BALLOON:28
#START
000000000000000000000000000000000000000000000000,
000000000000000000000000000000000000000000000000,
100000100000100000100000100000100000100000000000,
100000100000100000000000200000000000000000000000,
100000100000100000000000200000000000000000000000,
200000000000200000000000200000000000200000000000,
100000100000100000100000100000100000100000000000,
100000100000100000000000200000000000200000000000,
100000100000100000000000200000000000000000000000,
100000100000100000000000100000100000100000000000,
100000100000100000100000100000100000100000100000,
100000000000000000000000100000100000100000100000,
100000000000100000000000100000100000000000000000,
100000000000000000000000100000100000100000100000,
100000200000000000200000100000000000000000000000,
100000000000000000000000100000100000100000100000,
100000000000100000000000100000100000000000000000,
100000000000000000000000100000200000100000200000,
100000200000000000200000100000000000000000000000,
000000000000200000000000200000000000100000100000,
000000000000200000000000200000100000000000100000,
000000000000200000200000200000200000000000100000,
100000100000000000100000000000100000100000100000,
000000100000100000100000000000000000100000100000,
100000000100000000100000100000000000100000100000,
100000000000000000100000100000000000100000000000,
500000000000000000000000000000000008000000000000,
100000100000100000100000300000000000100000000000,
100000000000100000100000100000000000100000000000,
100000000000100000100000100000000000100000100000,
100000100000000000100000100000000000000000000000,
100000100000100000100000100000000000300000000000,
100000000000100000100000100000000000100000000000,
100000000000100000100000100000000000100000000000,
100000100000000000100000100000000000000000100000,
100000000000000000000000100000000100000000100000,
100000000000100000000000100000000000100000000000,
700000000000000000000000000000000000000000000000,
000000000000000000000000000000000800000000000000,
#END
COURSE:Hard
LEVEL:2
BALLOON:28
SCOREINIT:1090
SCOREDIFF:320
#START
000000000000000000000000000000000000000000000000,
000000000000000000000000000000000000000000000000,
100000100000100000100000100000100000100000000000,
100000100000100000000000200000000000000000000000,
100000100000100000000000200000000000000000000000,
200000000000200000000000200000000000200000000000,
100000100000100000100000100000100000100000000000,
100000100000100000000000200000000000200000000000,
100000100000100000000000200000000000000000000000,
100000100000100000000000100000100000100000000000,
100000100000100000100000100000100000100000100000,
100000000000000000000000100000100000100000100000,
100000000000100000000000100000100000000000000000,
100000000000000000000000100000100000100000100000,
100000200000000000200000100000000000000000000000,
100000000000000000000000100000100000100000100000,
100000000000100000000000100000100000000000000000,
100000000000000000000000100000200000100000200000,
100000200000000000200000100000000000000000000000,
000000000000200000000000200000000000100000100000,
000000000000200000000000200000100000000000100000,
000000000000200000200000200000200000000000100000,
100000100000000000100000000000100000100000100000,
000000100000100000100000000000000000100000100000,
100000000100000000100000100000000000100000100000,
100000000000000000100000100000000000100000000000,
500000000000000000000000000000000008000000000000,
100000100000100000100000300000000000100000000000,
100000000000100000100000100000000000100000000000,
100000000000100000100000100000000000100000100000,
100000100000000000100000100000000000000000000000,
100000100000100000100000100000000000300000000000,
100000000000100000100000100000000000100000000000,
100000000000100000100000100000000000100000000000,
100000100000000000100000100000000000000000100000,
100000000000000000000000100000000100000000100000,
100000000000100000000000100000000000100000000000,
700000000000000000000000000000000000000000000000,
000000000000000000000000000000000800000000000000,
#END
COURSE:Normal
LEVEL:3
BALLOON:18
SCOREINIT:1550
SCOREDIFF:560
#START
000000000000000000000000000000000000000000000000,
000000000000000000000000000000000000000000000000,
100000000000000000000000100000000000000000000000,
100000000000100000000000100000000000000000000000,
100000000000100000000000200000000000000000000000,
100000000000100000000000200000000000000000000000,
100000000000000000000000100000000000000000000000,
100000000000100000000000200000000000000000000000,
100000000000100000000000200000000000000000000000,
100000100000100000000000100000100000100000000000,
100000000000100000000000100000000000000000000000,
300000000000000000000000100000100000100000000000,
100000000000100000000000100000000000000000000000,
100000000000000000000000100000100000100000000000,
100000000000100000000000100000000000000000000000,
100000000000000000000000100000100000100000000000,
100000000000100000000000100000000000000000000000,
100000000000000000000000100000100000100000000000,
100000000000100000000000100000000000000000000000,
000000000000200000000000200000000000100000100000,
000000000000200000000000200000000000100000100000,
000000000000200000000000200000000000000000100000,
100000000000000000100000000000000000100000000000,
000000000000100000000000000000000000100000000000,
100000000000000000100000100000000000000000000000,
100000000000100000000000100000000000100000000000,
500000000000000000000000000000800000000000000000,
100000100000100000000000300000000000100000000000,
100000000000100000000000100000000000000000000000,
100000000000100000100000100000000000100000000000,
100000100000000000100000100000000000000000000000,
100000100000100000000000100000000000300000000000,
100000000000100000000000100000000000000000000000,
100000000000100000100000100000000000100000000000,
100000100000000000100000100000000000000000000000,
100000000000000000000000100000000000100000000000,
100000000000000000000000100000000000100000000000,
700000000000000000000000000000000000000000000000,
000000000000000000000000000000800000000000000000,
#END
COURSE:Easy
LEVEL:4
SCOREINIT:1500
SCOREDIFF:650
#START
000000000000000000000000000000000000000000000000,
000000000000000000000000000000000000000000000000,
100000000000100000000000100000000000000000000000,
100000000000000000000000100000000000000000000000,
100000000000000000000000100000000000000000000000,
100000000000100000000000100000000000000000000000,
100000000000100000000000100000000000000000000000,
100000000000000000000000200000000000000000000000,
100000000000000000000000200000000000000000000000,
100000000000000000000000100000000000000000000000,
100000000000100000000000100000000000000000000000,
300000000000000000000000100000000000100000000000,
100000000000100000000000100000000000000000000000,
100000000000000000000000100000000000100000000000,
100000000000100000000000100000000000000000000000,
100000000000000000000000100000000000100000000000,
100000000000100000000000100000000000000000000000,
100000000000000000000000100000000000100000000000,
100000000000100000000000100000000000000000000000,
000000000000200000000000200000000000200000000000,
000000000000200000000000200000000000200000000000,
000000000000200000000000200000000000000000000000,
200000000000000000000000000000000000100000000000,
000000000000100000000000000000000000100000000000,
100000000000100000000000100000000000000000000000,
100000000000000000000000100000000000000000000000,
500000000000000000000000000000800000000000000000,
100000000000100000100000100000000000000000000000,
100000000000100000100000100000000000000000000000,
100000000000100000100000100000000000000000000000,
100000000000100000100000100000000000000000000000,
100000000000100000000000100000000000300000000000,
100000000000100000100000100000000000000000000000,
100000000000100000100000100000000000000000000000,
100000000000100000100000100000000000000000000000,
100000000000000000000000100000000000100000000000,
100000000000000000000000100000000000100000000000,
500000000000000000000000000000000000000000000000,
000000000000000000000000000000800000000000000000,
#END