Files
2023-06-15 19:15:39 -05:00

295 lines
11 KiB
Plaintext

//TJADB Project
TITLE:My Way
TITLEJA:My Way
SUBTITLE:--Def Tech/Yokohama Tire & Brother☆Beat
SUBTITLEJA:アルバム「Def Tech」より
BPM:100
WAVE:My Way.ogg
OFFSET:-2.976
DEMOSTART:44.236
COURSE:Oni
LEVEL:6
SCOREINIT:710
SCOREDIFF:150
#START
200000200000200200200000200000100100000100100000,
100000200100000200100000100000200000000000200000,
200000200200000000200000100000200200000000200000,
100000200100000200100000100000100000000000200000,
200000200200000000200000100000200200000000200000,
200000200200000000200000100000200200000000000000,
200000200200000000200000100000200200000200200000,
100000200100000200100000100000100000100000000000,
#MEASURE 5/4
000000000000000000000000000000000000000000000000
#BPMCHANGE 102.83
000000000000,
#MEASURE 4/4
#BPMCHANGE 100
100000100000100000100000100000000000000000000000,
100000100000100000200000100000000000000000000000,
100000100000100000100000100000000000000000000000,
100000100000100000200000100000000000000000000000,
100000100000100000100000100000000000000000000000,
100000100000100000200000100000000000200200200000,
#BPMCHANGE 99.37
100000100000100000100000100000000000000000000000,
#BPMCHANGE 100
100000100000100000200000000000200000100000000000,
#GOGOSTART
100000100000200000200000100000100000200000200000,
100000200100000200100000100100200000100000000000,
100000200200000000200000100000200200000200200000,
100000200100000200100000100100200000100000000000,
100000100100000100200000100000100100000100200000,
100000100000200000200000100100100000200000000000,
100000100100000100200000100000100100000100200000,
100000200100000200100000100000100100200000000000,
#GOGOEND
100100200200000000100000100100200200100000200000,
100100200000100100200000100100200200100000200000,
100100200200000000100000100100200200100000200000,
100100200100100100200100200200200200100000200200,
200000100100100000100000100000200200200000100000,
100000200200200000100000100000200200200000000000,
100200200000100000200000100200200000100000200000,
100200100200100000200000100200100200100000000000,
100000100100200000100000100000100100200000100000,
100000100100200000100000100000100100200000100000,
100000000200100000200000100000000200100100200000,
100000000200100000200000100000200000100000000000,
100100100000200000100000100100100000200000100000,
100100100000200000100000100100100100100000000000,
100200100200000000100000100200100200200000100000,
100100200200100100200200100200100200100000000000,
#GOGOSTART
100000100000200000200000100000100000200000200000,
100000200100000200100000100100200000100000000000,
100100100100000200200200100100100100000200200200,
100000200100000200100000100100200000100000000000,
100100100100000200200200100100100100000000000000,
100100100100200200200000200200200200000000000000,
100100100100000100100100200200200200000000000000,
100200200100200200100200100100200200100000000000,
#GOGOEND
#END
COURSE:Hard
LEVEL:5
SCOREINIT:530
SCOREDIFF:160
#START
200000000000200000000000200000200200000000200000,
200000000000200000000000200000200000000000000000,
200000200200000000000000200000200200000000000000,
200000200200000200200000200000200000000000000000,
200000200200000000000000200000200200000000000000,
200000200200000000200000200000200200000000000000,
200000200200000000200000200000200200000000000000,
200000200200000200200000200000200000200000000000,
#MEASURE 5/4
000000000000000000000000000000000000000000000000000000000000,
#MEASURE 4/4
100000000000000000100000100000000000000000000000,
100000000000000000100000100000000000200000000000,
100000000000100000100000100000000000000000000000,
100000000000100000100000100000000000000000000000,
100000000000000000100000100000000000000000000000,
100000000000000000100000100000000000200000000000,
100000000000100000100000100000000000000000000000,
100000000000000000000000000000200000100000000000,
#GOGOSTART
100000100000200000200200100000100100000000100000,
100000100100000100100000100100100000200000000000,
100100100100000000000000100100100100000000000000,
100000100100000100100000100000100000000000000000,
100100100100000000000000100100100100000000000000,
100100100100000100100000100100100100000000000000,
100100100100000100100000100100100100000000000000,
100000100100000100100000300000300000300000000000,
#GOGOEND
100100100100000000200000100100100100000200200000,
100000100000100000100000100100100100100000000000,
100100100100000000200000100100100100000200200000,
100000100000100000100000200200200100100000000000,
200000200200200000000000200000200200200000000000,
200000200200200000100000200200200200200000000000,
100000100100100000000000100000100100100000000000,
100100000100100000100000100100100100100000000000,
100000100000200000100000100000100000200000000000,
100000100000200000100000100000100000200000000000,
100000100000200000100000100000100000200000100000,
100000100000200000100000100000100000200000000000,
200000200000100000100000200000200000100000000000,
200000200000100000100000200000200000100000000000,
100000100100100000100000100000100100100000000000,
100100100100100000100000200200200200200000000000,
#GOGOSTART
100000100000200000200000100000100100000100100000,
100000100100000100100000100000100000000000000000,
100100100100000200200000100100100100000200200000,
100000100100000100100000100000100000000000000000,
100100100100000000000000100100100100000000000000,
100100100100000100100000100100100100000000000000,
200200200200000200200000200200200200000000000000,
100000100100000100100000300000300000300000000000,
#GOGOEND
#END
COURSE:Normal
LEVEL:3
SCOREINIT:810
SCOREDIFF:220
#START
200000000000200000000000200000000000000000000000,
200000000000000000000000200000200000000000000000,
200000000000200000000000200000000000000000000000,
200000000000000000000000200000200000000000000000,
200000000000200000000000200000000000000000000000,
200000000000000000000000200000200000000000000000,
200000000000200000000000200000000000000000000000,
200000000000200000000000200000200000200000000000,
#MEASURE 5/4
000000000000000000000000000000000000000000000000000000000000,
#MEASURE 4/4
100000000000000000100000100000000000000000000000,
100000000000000000100000100000000000000000000000,
100000000000000000100000100000000000000000000000,
100000000000100000100000100000000000000000000000,
100000000000000000100000100000000000200000000000,
100000000000000000100000100000000000000000000000,
100000000000100000100000100000000000000000000000,
100000000000000000000000000000200000100000000000,
#GOGOSTART
100000100000200000000000100000000000000000000000,
100000100000200000000000100000100000000000000000,
100000100000100000000000100000000000000000000000,
100000100000000000000000100000100000000000000000,
100000100000200000000000100000000000000000000000,
100000100000200000000000100000100000000000000000,
100000100000000000000000100000100000000000000000,
400000000000400000000000300000000000300000000000,
#GOGOEND
100000000000100000000000100000000000000000000000,
100000000000100000000000100000000000000000000000,
100000100000100000000000100000000000000000000000,
100000100000100000000000200000000000000000000000,
200000200000200000000000200000000000000000000000,
200000200000200000000000200000000000000000000000,
100000000000100000000000100000000000000000000000,
200000000000200000000000200000000000000000000000,
100000100000100000000000100000000000000000000000,
100000100000100000000000100000000000000000000000,
100000100000100000100000100000000000000000000000,
100000100000100000100000100000000000000000000000,
200000000000100000000000200000000000000000000000,
200000000000100000000000200000000000000000000000,
100000100000100000000000100000000000300000000000,
200000200000200000000000200000000000400000000000,
#GOGOSTART
100000100000200000000000100000000000000000000000,
100000100000200000000000100000100000000000000000,
100000100000100000000000100000000000000000000000,
100000100000000000000000100000100000000000000000,
100000100000200000000000100000000000000000000000,
100000100000200000000000100000100000000000000000,
100000100000000000000000100000100000000000000000,
400000000000400000000000300000000000300000000000,
#GOGOEND
#END
COURSE:Easy
LEVEL:3
SCOREINIT:790
SCOREDIFF:330
#START
200000000000000000000000000000000000000000000000,
200000000000000000000000200000200000000000000000,
200000000000000000000000000000000000000000000000,
200000000000000000000000200000200000000000000000,
200000000000000000000000000000000000000000000000,
200000000000000000000000200000200000000000000000,
200000000000000000000000000000000000000000000000,
200000000000000000000000200000000000200000000000,
#MEASURE 5/4
000000000000000000000000000000000000000000000000000000000000,
#MEASURE 4/4
100000000000000000000000000000000000000000000000,
100000000000000000100000100000000000000000000000,
100000000000000000000000000000000000000000000000,
100000000000000000100000100000000000000000000000,
100000000000000000000000000000000000000000000000,
100000000000000000200000200000000000000000000000,
100000000000000000000000000000000000000000000000,
100000000000000000000000000000000000000000000000,
#GOGOSTART
100000000000100000000000100000000000000000000000,
100000000000000000000000100000000000000000000000,
200000000000200000000000200000000000000000000000,
200000000000000000000000200000000000000000000000,
100000100000000000000000100000000000000000000000,
200000200000000000000000200000000000000000000000,
100000100000000000000000100000000000000000000000,
300000000000000000000000300000000000000000000000,
#GOGOEND
100000000000000000000000100000000000000000000000,
100000000000000000100000100000000000000000000000,
100000000000000000000000100000000000000000000000,
100000000000100000000000200000000000000000000000,
200000000000000000000000200000000000000000000000,
200000000000000000200000200000000000000000000000,
200000000000000000000000200000000000000000000000,
200000000000200000000000100000000000000000000000,
100000000000000000000000100000000000000000000000,
100000000000000000100000100000000000000000000000,
100000000000000000000000100000000000000000000000,
100000000000100000000000200000000000000000000000,
200000000000000000000000200000000000000000000000,
200000000000000000200000200000000000000000000000,
200000000000000000000000200000000000000000000000,
200000000000200000000000100000000000000000000000,
#GOGOSTART
100000000000100000000000100000000000000000000000,
100000000000000000000000100000000000000000000000,
200000000000200000000000200000000000000000000000,
200000000000000000000000200000000000000000000000,
100000100000000000000000100000000000000000000000,
200000200000000000000000200000000000000000000000,
100000100000000000000000100000000000000000000000,
300000000000300000000000300000000000300000000000,
#GOGOEND
#END