Files
2023-06-15 19:15:39 -05:00

279 lines
10 KiB
Plaintext

//TJADB Project
TITLE:Nakanaide
TITLEJA:泣かないで
SUBTITLE:--Shuchishin
BPM:164
WAVE:Nakanaide.ogg
OFFSET:-4.435
DEMOSTART:48.878
COURSE:Oni
LEVEL:5
SCOREINIT:1010
SCOREDIFF:240
#START
000000000000000000000000000000000000000000000000,
100000001000000020000000100000001000000020000000,
100000001000000020000000000000000000000000000000,
100000000000000000100000000000000000200000000000,
300000000000000000000000000000000000000000000000,
100000000000200000100000100100100000200000100000,
100000000000200000100000100000000000200000000000,
100000000000200000100000100100100000200000100000,
100000000000200000100000000000200200200000000000,
100000000000200000100000100100100000200000100000,
100000000000200000100000100000000000200000000000,
100000000000200000100000100100100000200000100000,
100000000000200000100000000000200200200000000000,
100000000000200000100000100100100000200000100000,
100000000000200000100000100000000000200000000000,
100000000000200000100000100100100000200000100000,
100000000000200000100000000000200200200000000000,
100000000000200000100000100100100000200000100000,
100000000000200000100000100000000000200000000000,
100000000000200000100000100100100000200000100000,
100000000000200000100000000000200200200000000000,
100000000000200000100000000000100000200000100000,
100000000000200000100000000000100000200000000000,
100000000000200000100000000000100000200000100000,
100000100000200000100000000000100000200000000000,
100000000000200000100000000000100000200000000000,
100000000000200000100000000000100000200000100000,
100000000000200000100000000000100000200000100000,
100000000000000000100000100000000000100000500000,
000000000000000000000000000000000000000000000008,
000000000000000000100000200000200000100000100000,
#GOGOSTART
000000100000200000100100100000200000100000100000,
300000000000300000000000000000100000100000200000,
100000100000200000000000100000100000200000000000,
100000100000200000100000000000100100100000100000,
100000000000200000100000100000000000200000100000,
100000000000200000100000100000000000200000100000,
000000100000200000100000200000100000200000100000,
000000000000000000100000200000200000100000100000,
000000100000200000100100100000200000100000100000,
300000000000300000000000000000100000100000200000,
100000100000200000000000100000100000200000000000,
100000100000200000100000000000100100100000100000,
100000000000200000100000100000000000200000100000,
100000000000200000100000000000100000200000100000,
100000100000200000100000200000100000200000100000,
000000100000100000000000200000100000000000500000,
000000000000000000000000000000000000000000000000,
000000000000000000000000000000000008000000000000,
#GOGOEND
#END
COURSE:Hard
LEVEL:5
SCOREINIT:1210
SCOREDIFF:320
#START
000000000000000000000000000000000000000000000000,
100000000000000000000000200000000000000000000000,
100000000000000000000000000000000000000000000000,
100000000000000000100000000000000000200000000000,
300000000000000000000000000000000000000000000000,
100000000000200000100000000000100000100000000000,
100000000000100000100000100000000000000000000000,
100000000000200000100000000000100000100000000000,
200000000000200000200000000000000000000000000000,
100000000000200000100000000000100000100000000000,
100000000000100000100000100000000000000000000000,
100000000000200000100000000000100000100000000000,
100000000000200000200000000000000000000000000000,
100000000000200000100000000000100000100000000000,
100000000000100000100000100000000000000000000000,
100000000000200000100000000000100000100000000000,
200000000000200000200000000000000000000000000000,
100000000000200000100000000000100000100000000000,
100000000000100000100000100000000000000000000000,
100000000000200000100000000000100000100000000000,
100000000000200000100000000000000000000000000000,
100000000000000000200000000000000000100000000000,
100000000000000000200000000000100000100000000000,
000000000000100000100000000000100000000000100000,
000000000000000000000000000000000000000000000000,
100000000000000000200000000000000000100000000000,
100000000000000000200000000000100000100000000000,
100000000000200000100000000000100000200000000000,
100000000000000000100000100000000000100000000000,
500000000000000000000000000000000000000000800000,
000000000000000000100000100000100000000000500000,
#GOGOSTART
000000000000000000800000000000000000300000300000,
300000000000300000000000000000100000100000000000,
100000100000200000000000100000100000200000000000,
100000100000200000100000000000000000000000000000,
100000000000200000100000100000000000200000000000,
100000000000200000100000100000000000100000100000,
000000100000100000000000100000100000000000100000,
000000000000000000100000100000100000000000500000,
000000000000000000800000000000000000300000300000,
300000000000300000000000000000100000100000000000,
100000100000200000000000100000100000200000000000,
100000100000200000100000000000000000000000000000,
100000000000200000100000100000000000200000000000,
100000000000200000100000000000100000200000000000,
100000000000100000000000100000100000000000100000,
000000300000300000000000300000300000000000600000,
000000000000000000000000000000000000000000000000,
000000000000000000000000000000000000000000000008,
#GOGOEND
#END
COURSE:Normal
LEVEL:4
BALLOON:14
SCOREINIT:1580
SCOREDIFF:590
#START
000000000000000000000000000000000000000000000000,
100000000000000000000000100000000000000000000000,
100000000000000000000000000000000000000000000000,
100000000000000000100000000000000000100000000000,
300000000000000000000000000000000000000000000000,
100000000000000000000000200000000000000000000000,
100000000000100000100000100000000000000000000000,
100000000000000000000000200000000000000000000000,
100000000000000000000000000000000000000000000000,
100000000000000000000000200000000000000000000000,
100000000000100000100000100000000000000000000000,
100000000000100000000000100000000000100000000000,
100000000000000000000000000000000000000000000000,
100000000000000000000000200000000000000000000000,
100000000000100000100000100000000000000000000000,
100000000000000000000000200000000000000000000000,
100000000000000000000000000000000000000000000000,
100000000000000000000000200000000000000000000000,
100000000000100000100000100000000000000000000000,
100000000000000000000000200000000000000000000000,
100000000000000000000000000000000000000000000000,
100000000000000000100000000000000000000000000000,
100000000000000000100000000000000000000000000000,
000000000000100000000000000000000000100000000000,
100000000000000000000000000000000000000000000000,
100000000000000000100000000000000000000000000000,
100000000000000000100000000000000000000000000000,
000000000000100000000000100000000000100000000000,
100000000000000000000000100000000000100000000000,
500000000000000000000000000000000000000000800000,
000000000000000000000000100000000000100000500000,
#GOGOSTART
000000000000000000000000000000800000000000000000,
300000000000300000000000000000000000000000000000,
100000000000100000000000100000000000100000000000,
100000000000100000100000000000000000000000000000,
100000000000000000000000200000000000000000000000,
100000000000000000000000200000000000000000000000,
100000000000100000000000100000000000100000000000,
100000000000000000000000100000000000100000500000,
000000000000000000000000000000800000000000000000,
100000000000100000000000000000000000000000000000,
100000000000100000000000100000000000000000000000,
100000000000100000100000000000000000000000000000,
100000000000000000000000200000000000000000000000,
100000000000000000000000200000000000000000000000,
100000000000100000000000100000000000000000100000,
000000100000100000000000100000100000000000900000,
,
000000000000000000000000000000000000000000000008,
#GOGOEND
#END
COURSE:Easy
LEVEL:3
BALLOON:10
SCOREINIT:1270
SCOREDIFF:690
#START
000000000000000000000000000000000000000000000000,
100000000000000000000000000000000000000000000000,
100000000000000000000000000000000000000000000000,
100000000000000000000000000000000000000000000000,
300000000000000000000000000000000000000000000000,
100000000000000000000000100000000000000000000000,
100000000000000000000000000000000000000000000000,
100000000000000000000000100000000000000000000000,
100000000000000000000000000000000000000000000000,
100000000000000000000000100000000000000000000000,
100000000000000000000000000000000000000000000000,
100000000000000000000000100000000000000000000000,
100000000000000000000000000000000000000000000000,
100000000000000000000000100000000000000000000000,
100000000000000000000000000000000000000000000000,
100000000000000000000000100000000000000000000000,
100000000000000000000000200000000000000000000000,
100000000000000000000000100000000000000000000000,
100000000000000000000000000000000000000000000000,
100000000000000000000000100000000000000000000000,
100000000000000000000000000000000000000000000000,
300000000000000000000000000000000000000000000000,
300000000000000000000000000000000000000000000000,
100000000000000000000000100000000000000000000000,
100000000000000000000000000000000000000000000000,
300000000000000000000000000000000000000000000000,
300000000000000000000000000000000000000000000000,
100000000000000000000000100000000000000000000000,
100000000000000000000000100000000000000000000000,
500000000000000000000000000000000000000000800000,
000000000000000000000000000000000000000000000000,
#GOGOSTART
000000000000100000000000000000000000100000000000,
000000000000100000000000100000000000000000000000,
100000000000000000000000200000000000000000000000,
100000000000100000000000100000000000000000000000,
100000000000000000000000100000000000000000000000,
100000000000000000000000100000000000000000000000,
100000000000100000000000100000000000000000000000,
100000000000000000000000000000000000000000000000,
000000000000100000000000000000000000100000000000,
000000000000100000000000100000000000000000000000,
100000000000000000000000200000000000000000000000,
100000000000100000000000100000000000000000000000,
100000000000000000000000100000000000000000000000,
100000000000000000000000100000000000000000000000,
100000000000100000000000100000000000000000000000,
000000000000100000000000100000000000100000000000,
9,
0008,
#GOGOEND
#END