Files
2023-06-15 19:00:23 -05:00

529 lines
5.9 KiB
Plaintext
Raw Permalink Blame History

This file contains ambiguous Unicode characters
This file contains Unicode characters that might be confused with other characters. If you think that this is intentional, you can safely ignore this warning. Use the Escape button to reveal them.
//TJADB Project
TITLE:Niji
TITLEJA:虹(Fischer's)
SUBTITLE:--Fischer’s [Ndaho & Peketan]
BPM:180
WAVE:Niji.ogg
OFFSET:-1.519
DEMOSTART:59.164
COURSE:Oni
LEVEL:6
BALLOON:8,5,8,15
SCOREINIT:470
SCOREDIFF:115
#START
#MEASURE 2/4
11111000,
#GOGOSTART
#MEASURE 4/4
1000201000222010,
0020201000222010,
0020201000222010,
02210120,
1020201000222010,
0020201000222010,
0022202000222020,
000000200000000000500000000000000008000000000000,
#GOGOEND
10101220,
10102210,
10101220,
10102210,
10101220,
10102210,
10101220,
10102210,
10221120,
10221220,
10221120,
10221220,
10221120,
10221220,
12210225,
000000000000000000000008000000000000000000000000,
12111211,
12111212,
12111211,
12111212,
12111211,
11010110,
3222,
30202023,
0022203000222060,
000000000000000000000000000000000008000000300000,
0222,
#GOGOSTART
10210120,
10210120,
10210120,
1000200011102010,
0010200011102010,
0010200000111030,
0011103000111030,
0022202040004000,
10210120,
10210120,
10210121,
01010105,
000000000008000000000000000000200000200000200000,
1010101000111030,
0011103000111030,
0011103020202040,
03370000,
82222040,
#MEASURE 2/4
#GOGOEND
11111000,
#MEASURE 4/4
10101011,
0010101020222000,
10101011,
0020101020222000,
10101011,
0010101020222000,
10101011,
0020101020222000,
1110001020004000,
1110001020004000,
1110101000100010,
0011101040004000,
10101011,
01117080,
1111,
10113030,
11001100,
,
3,
,
3000000011100030,
00201113,
00111111,
11111303,
0011103000111030,
0022202040004000,
#GOGOSTART
10210120,
10210120,
10210121,
01010105,
000000000008000000000000000000200000200000200000,
1010101000111030,
0011103000111030,
0011103020202040,
03370000,
8020111110101010,
0010200011102000,
1010200011102010,
0010200011102050,
000000000000000008000000000000100100100000300000,
0011103000111030,
0011103020202040,
03370000,
0084,
#GOGOEND
3000202011101030,
0020111010001060,
000000000000000000000008000000300000300000300000,
#END
COURSE:Hard
LEVEL:5
BALLOON:15,14,20,3,30,18
SCOREINIT:590
SCOREDIFF:143
#START
#MEASURE 2/4
,//1
#MEASURE 4/4
#GOGOSTART
10110102,
02220201,
01110102,
02220200,
11110102,
02220207,
,
08,//9
#GOGOEND
1110,
1120,
1110,
1120,
1110,
1120,
1110,
1120,
10201120,
1210,
10201120,
1210,
10201120,
1210,
7,
08,
12101210,
10121210,
12101210,
10121210,
12101210,
10010010,
3,
30000007,
,
,
8,//36
#GOGOSTART
10210120,
10210120,
10210120,
10201125,
000000000000000000000000000000000000000008000000,
00000113,
01130113,
0022,
10210120,
10210120,
10210125,
000000000000000000000000000000000000000008000000,
00000222,
11110113,
01130113,
01132226,
000000000000000000000000000000000000000000000008,
,//54
#MEASURE 2/4
#GOGOEND
11111000,
#MEASURE 4/4
10101011,
01112020,
10101011,
02112020,
10101011,
01112020,
10101011,
02112020,
10012040,
10012040,
10110101,
01104040,
10101011,
01117080,
1111,
1033,
11001100,
,
3,
,
3,
00000009,
,
,
0900,
8,//81
#GOGOSTART
10210120,
10210120,
10210125,
000000000000000000000000000000000000000008000000,
00000222,
11110113,
01130113,
01132226,
000000000000000000000000000000000000000008000000,
00011221,
01201120,
10201121,
01201125,
000000000000000008000000000000100000100000300000,
01130113,
01132227,
,
0084,//99
#GOGOEND
30220013,
02001016,
000000000000000000000008000000300000300000300000,
,
,
#END
COURSE:Normal
LEVEL:4
BALLOON:13,12,15,3,22,15
SCOREINIT:860
SCOREDIFF:253
#START
#MEASURE 2/4
,//1
#MEASURE 4/4
#GOGOSTART
10100101,
00000101,
00000101,
,
10100101,
00000107,
,
08,//9
#GOGOEND
1,
1,
1,
2,
1,
1,
1,
2,
11,
12,
11,
12,
11,
12,
7,
08,
10101110,
1110,
10101110,
1110,
10101110,
10010010,
3,
30000007,
,
,
8,//36
#GOGOSTART
12,
1120,
12,
10102005,
000000000000000000000000000000000000000008000000,
00000003,
00030003,
,
1012,
1012,
10001005,
000000000000000000000000000000000000000008000000,
,
10010003,
00030003,
00030006,
000000000000000000000000000000000000000000000008,
,//54
#MEASURE 2/4
#GOGOEND
,
#MEASURE 4/4
10101001,
0122,
10101001,
0122,
10101001,
0122,
10101001,
0122,
1024,
1024,
10010101,
0144,
10101001,
0178,
1111,
1033,
,
,
3,
,
3,
00000009,
,
,
0900,
8,//81
#GOGOSTART
1012,
1012,
10001005,
000000000000000000000000000000000000000008000000,
,
10010003,
00030003,
00030006,
000000000000000000000000000000000000000008000000,
00000001,
05,
000000000008000000000000000000100000000000100000,
00101005,
000000000000000008000000000000000000000000300000,
00030003,
00030007,
,
08,//99
#GOGOEND
30000003,
00000006,
000000000000000000000008000000300000300000300000,
,
,
#END
COURSE:Easy
LEVEL:3
BALLOON:10,10,12,3,16,12
SCOREINIT:800
SCOREDIFF:340
#START
#MEASURE 2/4
,//1
#MEASURE 4/4
#GOGOSTART
10100001,
00000001,
00000001,
,
10100001,
00000007,
,
08,//9
#GOGOEND
1,
1,
1,
2,
1,
1,
1,
2,
11,
1,
11,
1,
11,
1,
7,
08,
11,
1110,
11,
1110,
11,
2,
3,
30000007,
,
,
8,//36
#GOGOSTART
11,
1,
11,
10000005,
000000000000000000000000000000000000000008000000,
00000003,
00030003,
,
11,
1,
10001005,
000000000000000000000000000000000000000008000000,
,
10010003,
00030003,
00030006,
000000000000000000000000000000000000000000000008,
,//54
#MEASURE 2/4
#GOGOEND
,
#MEASURE 4/4
1,
0022,
,
0022,
,
0022,
,
0022,
0024,
0024,
,
0044,
,
0078,
,
0033,
,
,
3,
,
3,
00000009,
,
,
0900,
8,//81
#GOGOSTART
11,
1,
10001005,
000000000000000000000000000000000000000008000000,
,
10010003,
00030003,
00030006,
000000000000000000000000000000000000000008000000,
00000001,
05,
000000000008000000000000000000000000000000100000,
00101005,
000000000000000008000000000000000000000000300000,
00030003,
00030007,
,
08,//99
#GOGOEND
30000003,
00000006,
000000000000000000000008000000000000000000300000,
,
,
#END