forked from ESE/ESE
323 lines
8.6 KiB
Plaintext
323 lines
8.6 KiB
Plaintext
//TJADB Project
|
|
TITLE:Qing Bu Zhi Jing
|
|
TITLEJA:情不自禁
|
|
SUBTITLE:--Tiger Hu
|
|
BPM:80.2
|
|
WAVE:Qing Bu Zhi Jing.ogg
|
|
OFFSET:-6.553
|
|
DEMOSTART:72.555
|
|
|
|
COURSE:Oni
|
|
LEVEL:7
|
|
BALLOON:18,10
|
|
SCOREINIT:1320
|
|
SCOREDIFF:320
|
|
|
|
|
|
#START
|
|
|
|
|
|
000000000000000000000000000000000000000000000000,
|
|
#BPMCHANGE 79
|
|
000000000000000000000000000000000000
|
|
#BPMCHANGE 86.13
|
|
000000000000,
|
|
#BPMCHANGE 79.09
|
|
100000000000200000000100000100100000100000000000,
|
|
#BPMCHANGE 79.85
|
|
100000000000200000000100000200100100200000000000,
|
|
#BPMCHANGE 80.2
|
|
100000000000200000000100000100100000200000000000,
|
|
#BPMCHANGE 79.66
|
|
100000000000200000100100000200100100200000000000,
|
|
#BPMCHANGE 80.1
|
|
100000000000200000200100100000100000200100000100,
|
|
#BPMCHANGE 79.68
|
|
100000100000200000100100100000100000200000100100,
|
|
#BPMCHANGE 80.12
|
|
100000000000200000200100100000100000200100000100,
|
|
#BPMCHANGE 80.75
|
|
100000100000200000100100100000100000200000100100,
|
|
#BPMCHANGE 79.74
|
|
100000000000200000200100100200000200100100000100,
|
|
#BPMCHANGE 79.72
|
|
100000100000200000100100100000100000200000100100,
|
|
#BPMCHANGE 79.68
|
|
500000000000000000000000000008000000100100100000,
|
|
#BPMCHANGE 80.55
|
|
700000000000000000000000000000800000000000000000,
|
|
#BPMCHANGE 79.78
|
|
100000000000200000200100100000100000200100000200,
|
|
#BPMCHANGE 79.89
|
|
100000100000200000100100100000100000200000100100,
|
|
#BPMCHANGE 80.11
|
|
100000000000200000200100100000100000200100000200,
|
|
#BPMCHANGE 80.29
|
|
100000100000200000100100100000100000200000100100,
|
|
#BPMCHANGE 79.71
|
|
100000000000200000200100100200000200100100000200,
|
|
#BPMCHANGE 80.08
|
|
100000100000200000100100100000100000200000100100,
|
|
#BPMCHANGE 79.78
|
|
500000000000000000000000000008000000100100100000,
|
|
#BPMCHANGE 80.32
|
|
300000000000300000000000300000000000100000100100,
|
|
|
|
#GOGOSTART
|
|
#BPMCHANGE 79.51
|
|
200000100000200100100200000100200000100000100100,
|
|
#BPMCHANGE 79.89
|
|
200000200100100200000200100000100100200000100100,
|
|
#BPMCHANGE 80.36
|
|
200100100000200000100100200100100000200000000000,
|
|
#BPMCHANGE 79.85
|
|
300000000000300000000000300000000000100000100100,
|
|
#BPMCHANGE 80.01
|
|
200000100000200100100200000200100000100000100100,
|
|
#BPMCHANGE 80.4
|
|
200000200100100200000200100000100100200000100100,
|
|
#BPMCHANGE 79.39
|
|
200100100000200000100100200100100000200000000000,
|
|
#BPMCHANGE 80.83
|
|
300000000000300000000000700000000000000000000008,
|
|
|
|
#GOGOEND
|
|
|
|
|
|
#END
|
|
|
|
|
|
COURSE:Hard
|
|
LEVEL:4
|
|
BALLOON:12,7
|
|
|
|
|
|
#START
|
|
|
|
|
|
000000000000000000000000000000000000000000000000,
|
|
#BPMCHANGE 79
|
|
000000000000000000000000000000000000
|
|
#BPMCHANGE 86.13
|
|
000000000000,
|
|
#BPMCHANGE 79.09
|
|
100000000000200000000000100100100000100000000000,
|
|
#BPMCHANGE 79.85
|
|
100000000000200000000000100100100000100000000000,
|
|
#BPMCHANGE 80.2
|
|
100000000000200000000000100100100000100000000000,
|
|
#BPMCHANGE 79.66
|
|
100000000000200000000000100100100000100100200000,
|
|
#BPMCHANGE 80.1
|
|
100000000000000000000000100100100000100000200000,
|
|
#BPMCHANGE 79.68
|
|
100000000000200000100100100000000000200000100100,
|
|
#BPMCHANGE 80.12
|
|
100000000000000000000000100100100000100000200000,
|
|
#BPMCHANGE 80.75
|
|
100000000000200000100100100000000000200000100100,
|
|
#BPMCHANGE 79.74
|
|
100000000000000000000000100100100000100000200000,
|
|
#BPMCHANGE 79.72
|
|
100000000000200000100100100000000000200000100100,
|
|
#BPMCHANGE 79.68
|
|
500000000000000000000000000080000000100100100000,
|
|
#BPMCHANGE 80.55
|
|
700000000000000000000000000000000800000000000000,
|
|
#BPMCHANGE 79.78
|
|
100000000000200000000000100100100000100000200000,
|
|
#BPMCHANGE 79.89
|
|
100000000000200000100100100000000000200000100100,
|
|
#BPMCHANGE 80.11
|
|
100000000000200000000000100100100000100000200000,
|
|
#BPMCHANGE 80.29
|
|
100000000000200000100100100000200000100100100000,
|
|
#BPMCHANGE 79.71
|
|
100000000000200000000000100100100000100000200000,
|
|
#BPMCHANGE 80.08
|
|
100000000000200000100100100000000000200000100100,
|
|
#BPMCHANGE 79.78
|
|
500000000000000000000000000080000000100100100000,
|
|
#BPMCHANGE 80.32
|
|
300000000000300000000000300000000000100000100100,
|
|
|
|
#GOGOSTART
|
|
#BPMCHANGE 79.51
|
|
100000100000200000100100100000000000100000100100,
|
|
#BPMCHANGE 79.89
|
|
100000100000200000100100100000000000100000100000,
|
|
#BPMCHANGE 80.36
|
|
100100100000000000100000100100100000000000000000,
|
|
#BPMCHANGE 79.85
|
|
300000000000300000000000300000000000100000100100,
|
|
#BPMCHANGE 80.01
|
|
100000100000200000100100100000000000100000100100,
|
|
#BPMCHANGE 80.4
|
|
100000100000200000100100100000000000100000100000,
|
|
#BPMCHANGE 79.39
|
|
100100100000000000100000100100100000000000000000,
|
|
#BPMCHANGE 80.83
|
|
300000000000300000000000700000000000000000000008,
|
|
|
|
#GOGOEND
|
|
|
|
|
|
#END
|
|
|
|
|
|
COURSE:Normal
|
|
LEVEL:4
|
|
BALLOON:10,6
|
|
|
|
|
|
#START
|
|
|
|
|
|
000000000000000000000000000000000000000000000000,
|
|
#BPMCHANGE 79
|
|
000000000000000000000000000000000000
|
|
#BPMCHANGE 86.13
|
|
000000000000,
|
|
#BPMCHANGE 79.09
|
|
100000000000100000000000000000000000100000000000,
|
|
#BPMCHANGE 79.85
|
|
100000000000100000000000000000000000100000000000,
|
|
#BPMCHANGE 80.2
|
|
100000000000100000000000000000000000100000000000,
|
|
#BPMCHANGE 79.66
|
|
100000000000100000000000500000000000000000000080,
|
|
#BPMCHANGE 80.1
|
|
000000000000200000000000100000100000100000000000,
|
|
#BPMCHANGE 79.68
|
|
100000000000200000000000100000000000000000000000,
|
|
#BPMCHANGE 80.12
|
|
100000000000200000000000100000100000100000000000,
|
|
#BPMCHANGE 80.75
|
|
100000000000200000000000100000000000000000000000,
|
|
#BPMCHANGE 79.74
|
|
100000000000200000000000100000100000100000000000,
|
|
#BPMCHANGE 79.72
|
|
100000000000200000000000100000000000000000000000,
|
|
#BPMCHANGE 79.68
|
|
500000000000000000000000000080000000000000000000,
|
|
#BPMCHANGE 80.55
|
|
700000000000000000000000000000000800000000000000,
|
|
#BPMCHANGE 79.78
|
|
100000000000100000100000100000000000200000000000,
|
|
#BPMCHANGE 79.89
|
|
100000000000200000000000100000000000000000000000,
|
|
#BPMCHANGE 80.11
|
|
100000000000100000100000100000000000200000000000,
|
|
#BPMCHANGE 80.29
|
|
100000000000200000000000100000000000000000000000,
|
|
#BPMCHANGE 79.71
|
|
100000000000100000100000100000000000200000000000,
|
|
#BPMCHANGE 80.08
|
|
100000000000200000000000100000000000000000000000,
|
|
#BPMCHANGE 79.78
|
|
500000000000000000000000000080000000000000000000,
|
|
#BPMCHANGE 80.32
|
|
100000100000100000000000100100000000300000000000,
|
|
|
|
#GOGOSTART
|
|
#BPMCHANGE 79.51
|
|
100000100000100100000000100000000000200000000000,
|
|
#BPMCHANGE 79.89
|
|
100000100000100100000000100000000000000000000000,
|
|
#BPMCHANGE 80.36
|
|
100000100000200000000000100000100000200000000000,
|
|
#BPMCHANGE 79.85
|
|
300000000000300000000000100000100000100000000000,
|
|
#BPMCHANGE 80.01
|
|
100000100000100100000000100000000000200000000000,
|
|
#BPMCHANGE 80.4
|
|
100000100000100100000000100000000000000000000000,
|
|
#BPMCHANGE 79.39
|
|
100000100000200000000000100000100000200000000000,
|
|
#BPMCHANGE 80.83
|
|
300000000000300000000000700000000000000000000008,
|
|
|
|
#GOGOEND
|
|
|
|
|
|
#END
|
|
|
|
|
|
COURSE:Easy
|
|
LEVEL:2
|
|
BALLOON:8,4
|
|
|
|
|
|
#START
|
|
|
|
|
|
000000000000000000000000000000000000000000000000,
|
|
#BPMCHANGE 79
|
|
000000000000000000000000000000000000
|
|
#BPMCHANGE 86.13
|
|
000000000000,
|
|
#BPMCHANGE 79.09
|
|
100000000000100000000000000000000000000000000000,
|
|
#BPMCHANGE 79.85
|
|
100000000000100000000000000000000000000000000000,
|
|
#BPMCHANGE 80.2
|
|
100000000000100000000000000000000000000000000000,
|
|
#BPMCHANGE 79.66
|
|
100000000000100000000000500000000000000000000008,
|
|
#BPMCHANGE 79.66
|
|
000000000000000000000000100000000000100000000000,
|
|
#BPMCHANGE 79.68
|
|
100000000000000000000000100000000000000000000000,
|
|
#BPMCHANGE 80.12
|
|
000000000000000000000000100000000000100000000000,
|
|
#BPMCHANGE 80.75
|
|
100000000000000000000000100000000000000000000000,
|
|
#BPMCHANGE 79.74
|
|
000000000000000000000000100000000000100000000000,
|
|
#BPMCHANGE 79.72
|
|
100000000000000000000000100000000000000000000000,
|
|
#BPMCHANGE 79.68
|
|
500000000000000000000000000080000000000000000000,
|
|
#BPMCHANGE 80.55
|
|
700000000000000000000000000000000800000000000000,
|
|
#BPMCHANGE 79.78
|
|
000000000000000000000000200000000000200000000000,
|
|
#BPMCHANGE 79.89
|
|
200000000000000000000000100000000000000000000000,
|
|
#BPMCHANGE 80.11
|
|
000000000000000000000000200000000000200000000000,
|
|
#BPMCHANGE 80.29
|
|
200000000000000000000000100000000000000000000000,
|
|
#BPMCHANGE 79.71
|
|
000000000000000000000000200000000000200000000000,
|
|
#BPMCHANGE 80.08
|
|
200000000000000000000000100000000000000000000000,
|
|
#BPMCHANGE 79.78
|
|
500000000000000000000000000080000000000000000000,
|
|
#BPMCHANGE 80.32
|
|
300000000000300000000000300000000000000000000000,
|
|
|
|
#GOGOSTART
|
|
#BPMCHANGE 80.32
|
|
100000000000100000000000200000000000000000000000,
|
|
#BPMCHANGE 79.89
|
|
100000000000100000000000200000000000000000000000,
|
|
#BPMCHANGE 80.36
|
|
100000000000100000000000200000000000000000000000,
|
|
#BPMCHANGE 79.85
|
|
200000000000200000000000200000000000000000000000,
|
|
#BPMCHANGE 80.01
|
|
100000000000100000000000200000000000000000000000,
|
|
#BPMCHANGE 80.4
|
|
100000000000100000000000200000000000000000000000,
|
|
#BPMCHANGE 79.39
|
|
100000000000100000000000200000000000000000000000,
|
|
#BPMCHANGE 80.83
|
|
300000000000300000000000700000000000000000000008,
|
|
|
|
#GOGOEND
|
|
|
|
|
|
#END
|
|
|