Files
2023-06-15 19:15:39 -05:00

229 lines
8.7 KiB
Plaintext

//TJADB Project
TITLE:Romance no Kami-sama
TITLEJA:ロマンスの神様
SUBTITLE:--Kohmi Hirose/Alpen
BPM:126
WAVE:Romance no Kami-sama.ogg
OFFSET:-7.920
DEMOSTART:72.681
COURSE:Oni
LEVEL:7
BALLOON:10
#START
000000100000100000000000100000000100000000100100,
000000000000100000000000200000000000200000000000,
000000100000100000000000100000000100000000100100,
000000100000100000000000100100100000100000100100,
000000100000100000000000100000000100000000100100,
000000000000100000000000200000000000200000000000,
000000100000100000000000100000000100000000100100,
000000000000000000000000000000000000000000100000,
100000100000100000300000000000000000200000000000,
100000100000200000100100000100100000200000200000,
100000100000200000100100000100100000200000200000,
100100100000200000100100000100100000200200200000,
100100100000200000100100000100100000200200200000,
100000100000200000100100000100100000200000200000,
100000100000200000100100000100100000200000200000,
100100100000200000100100000100100000200200200000,
300000000000000000000000100100200200200000000000,
100100100000200000100100000100100000200200200000,
100100100000200000100100000100100000200200200000,
100100100000200000100100000100100000100200100000,
100100100000200000100100000100100000100200100000,
100100100000200000100100000100100000100100200000,
100100100000200000100100000100100000100100200000,
100100100000200000100100000100100000200000000000,
300000000000000000000000100100100000100100100000,
100000200000200000100100000100100000200000200000,
100000200000200000100100000100100000100200100200,
100000200000200000100100000100100000100200100200,
100100100100100000000000100000000100000000100000,
300000200000200000100100000100100000100200100200,
100000200000200000100100000100100000100000200000,
300000400000000000300000400000000000100100100000,
500000000000000000000000000000000008000000000000,
000000100000100000100000100000200200200000200000,
300000000000300000000000300000000000100000100000,
000000100000100000000000100200100200100000000000,
100100100000100100100000100200100200100000100000,
700000000000000000000000000000000000800000000000,
300000000000300000000000300000000000100000100000,
000000100000100000000000100200100200100000000000,
100100100000100100100000100100100000200000300000,
#END
COURSE:Hard
LEVEL:5
BALLOON:6
SCOREINIT:930
SCOREDIFF:230
#START
000000100000100000000000100000000100000000100100,
000000000000100000000000200000000000200000000000,
000000100000100000000000100000000100000000100100,
000000100000100000000000100100100000100000100100,
000000100000100000000000100000000100000000100100,
000000000000100000000000200000000000200000000000,
000000100000100000000000100000000100000000100100,
000000000000000000000000000000000000000000100000,
100000100000100000300000000000000000200000000000,
100000000000200000100100000100100000200000000000,
100000000000200000100100000100100000200000000000,
100000100000200000100100000100100000200000200000,
100000100000200000100100000100100000200000000000,
100000000000200000100100000100100000200000000000,
100000000000200000100100000100100000200000000000,
100000100000200000100100000100100000200000200000,
300000000000000000000000000000200000200000000000,
100000100000200000100100000100100000200000000000,
100000100000200000100100000100100000200000000000,
100100100000200000100100000100100000200000200000,
100100100000200000100100000100100000200000000000,
100000100000200000100100000100100000200000000000,
100000100000200000100100000100100000200000000000,
100100100000200000100100000100100000200000200000,
300000000000000000000000200200200000200000000000,
100000100000200000000000100000100000200000000000,
100000100000200000100100000100100000200000000000,
100000100000200000000000100000100000200000000000,
100000100000200000000000100000000100000000100000,
300000000000200000100100000100100000200000000000,
100000100000200000100100000100100000200000000000,
300000400000000000300000400000000000000000000000,
500000000000000000000000000000000800000000000000,
000000100000100000100000100000000000200000000000,
300000000000300000000000300000000000100000100000,
000000100000100000000000200000200000200000000000,
100000000000100000100000100000200000100000200000,
700000000000000000000000000000000800000000000000,
300000000000300000000000300000000000100000100000,
000000100000100000000000200000200000200000000000,
100000100000100000200000100000100000100000300000,
#END
COURSE:Normal
LEVEL:2
SCOREINIT:1270
SCOREDIFF:430
#START
000000000000000000000000000000000000100000000000,
000000000000000000000000100000000000100000000000,
000000000000000000000000000000000000100000000000,
000000100000100000000000000000000000100000000000,
000000000000100000000000100000000000100000000000,
100000000000000000000000200000000000200000000000,
000000000000100000000000100000000000100000000000,
300000000000000000000000000000000000000000000000,
100000100000100000100000000000000000000000000000,
100000000000200000000000100000000000200000000000,
100000000000100000000000000000000000100000000000,
100000000000200000000000100000000000200000000000,
100000000000100000000000000000000000100000000000,
100000000000200000000000100000000000200000000000,
100000000000100000000000000000000000100000000000,
100000000000100000000000100000000000100000000000,
100000000000000000000000000000200000200000000000,
100000000000200000000000100000000000200000000000,
100000000000100000000000000000000000100000000000,
100000000000200000000000100000000000200000000000,
100000000000100000000000000000000000100000000000,
100000000000200000000000100000000000200000000000,
100000000000100000000000000000000000100000000000,
100000000000100000000000100000000000100000000000,
100000000000000000000000100000100000100000100000,
100000000000200000000000000000000000200000000000,
100000000000100000000000200000000000000000000000,
000000000000200000000000000000000000200000000000,
100000000000100000000000200000000000000000000000,
100000000000200000000000100000000000200000000000,
100000100000100000100000100000000000000000000000,
300000000000000000000000300000000000000000000000,
500000000000000000000000000000000080000000000000,
000000100000100000100000100000000000000000000000,
300000000000300000000000300000000000100000100000,
000000000000100000000000200000000000200000000000,
100000000000100000100000100000000000100000000000,
500000000000000000000000000000000080000000000000,
300000000000300000000000300000000000100000100000,
000000000000100000000000200000000000200000000000,
100000100000100000100000100000100000100000000000,
500000000000000000000000000000000000000000000008,
#END
COURSE:Easy
LEVEL:5
#START
000000000000000000000000000000000000100000000000,
000000000000000000000000100000000000100000000000,
000000000000000000000000000000000000100000000000,
000000100000100000000000000000000000100000000000,
000000000000100000000000100000000000100000000000,
100000000000000000000000000000000000000000000000,
000000000000100000000000100000000000100000000000,
300000000000000000000000000000000000000000000000,
100000000000100000000000000000000000000000000000,
100000000000200000000000100000000000200000000000,
100000000000100000000000000000000000100000000000,
100000000000200000000000100000000000200000000000,
100000000000100000000000000000000000100000000000,
100000000000200000000000100000000000200000000000,
100000000000100000000000000000000000100000000000,
100000000000100000000000100000000000100000000000,
100000000000000000000000000000000000000000000000,
100000000000200000000000100000000000200000000000,
100000000000100000000000000000000000100000000000,
100000000000200000000000100000000000200000000000,
100000000000100000000000000000000000100000000000,
100000000000200000000000100000000000200000000000,
100000000000100000000000000000000000100000000000,
100000000000100000000000100000000000100000000000,
100000000000000000000000000000000000000000000000,
000000000000200000000000000000000000200000000000,
100000000000100000000000200000000000000000000000,
000000000000200000000000000000000000200000000000,
100000000000100000000000200000000000000000000000,
100000000000200000000000100000000000100000000000,
100000000000200000000000100000000000000000000000,
300000000000000000000000300000000000000000000000,
500000000000000000000000000000000008000000000000,
000000000000100000000000100000000000000000000000,
300000000000300000000000300000000000100000100000,
000000000000100000000000200000000000200000000000,
100000000000100000000000100000000000000000000000,
500000000000000000000000000000000008000000000000,
300000000000300000000000300000000000100000100000,
000000000000100000000000200000000000200000000000,
100000000000100000000000100000000000000000000000,
500000000000000000000000000000000000000000000008,
#END