Files
2023-06-15 19:00:23 -05:00

610 lines
21 KiB
Plaintext

//TJADB Project
TITLE:SPEED KING
TITLEJA:SPEED KING
SUBTITLE:--RIP SLYME/Wrap SLYME
BPM:205
WAVE:SPEED KING.ogg
OFFSET:-2.355
DEMOSTART:67.901
COURSE:Oni
LEVEL:9
BALLOON:5,5,5,5,5,7
SCOREINIT:380
SCOREDIFF:90
#START
#GOGOSTART
100000000000000000000000100000000000000000000000,
100000000000000000000000100000000000300000000000,
100000000000000000000000100000000000000000000000,
100000000000000000000000100000000000300000000000,
100000000000000000000000100000000000000000000000,
#BPMCHANGE 204.89
300000000000000000000000300000000000300000000000,
#BPMCHANGE 202.63
#SCROLL 1.01
400000000000400000000000400000000000400000000000,
#BPMCHANGE 205.12
#SCROLL 1
400000000000300000000000000000001000100010001000,
#GOGOEND
#BPMCHANGE 205
100000000000100000001000100000000000100000000000,
200000002000200000002000200000002000200000000000,
100000000000100000001000100000000000100000000000,
000000001000100000001000100000000000100000000000,
200000000000200000002000200000000000200000000000,
100000001000100000001000100000001000100000000000,
200000000000200000002000000000002000000000002000,
200000002000200000002000200000000000200000000000,
100000000000100000001000100000000000100000000000,
200000002000200000002000200000002000200000000000,
100000000000100000001000100000000000100000000000,
000000002000200000002000200000000000200000000000,
000000001000100000001000100000000000100000000000,
000000002000200000002000200000000000200000000000,
000000001000100000001000100000000000100000000000,
000000002000200000002000200000000000200000000000,
500000000000000000000000000000000008000000000000,
600000000000000000000000000000000008000000000000,
500000000000000000000000000000000008000000000000,
600000000000000000000000000000000008000000000000,
100000001000200000002000100010001000200000000000,
100000001000200000002000100010001000200000000000,
100010001000200020002000100010001000100010001000,
700000000000000000000000000000000000800000000000,
100000001000100000000000200000002000200000000000,
100000001000100000001000100000001000100000000000,
100000001000100000000000200000002000200000000000,
300000000000300000003000000000000000000000000000,
100000001000100000000000200000000000200000000000,
200000002000200000002000200000002000200000000000,
100000001000100000000000200000000000200000000000,
300000000000300000003000000000002000100010001000,
100000001000100000000000200000002000200000000000,
100000001000100000001000100000001000100000000000,
100000001000100000000000200000002000200000000000,
300000000000300000003000000000000000000000000000,
100000001000100000000000200000000000200000000000,
200000002000200000002000200000002000200000000000,
100000001000100000000000200000000000200000000000,
300000000000300000003000000000002000100010001000,
100000001000100000001000100000001000100000001000,
200000002000200000002000200000002000200000002000,
100000001000100000001000100000001000100000001000,
200000002000200000002000200000002000200000002000,
700000000000000000000000000000000000800000000000,
700000000000000000000000000000000000800000000000,
600000000000000000000000000000000000000000000008,
000000000000000000000000000000000000000000000000,
#GOGOSTART
300000000000300000000000300000000000300000000000,
300000000000300000003000000000000000400000001000,
100000001000200000001000100000001000200000001000,
100000001000200000001000000000000000000000000000,
300000000000300000000000300000000000300000000000,
300000000000300000003000000000000000400000001000,
100000001000200000001000100000001000200000001000,
100000001000200000001000000000000000000000000000,
400000000000400000000000400000000000400000000000,
400000000000400000004000000000000000300000002000,
200000002000200000002000200000002000200000002000,
200000002000200000002000000000000000400000000000,
300000000000300000000000300000000000300000000000,
300000000000300000003000000000000000400000000000,
300000000000400000000000300000000000400000000000,
300000000000000000002000200000002000200000002000,
#GOGOEND
100000001000100000001000100010001000100000001000,
200000001000200000001000200000001000200000001000,
100000001000100000001000100010001000100000001000,
100000001000100000001000100000002000200000000000,
200000002000200000002000200020002000200000002000,
100000002000100000002000100000002000100000000000,
100010001000200020002000100010001000100010001000,
100000000000100000000000400000000000000000000000,
100000001000100000001000100010001000100000001000,
200000001000200000001000200000001000200000001000,
100000001000100000001000100010001000100000000000,
700000000000000000000000000000000000800000000000,
200000002000200000002000200020002000200000002000,
100000002000100000002000100000002000100000001000,
200020002000100000001000200020002000100000001000,
200000001000100000001000100000002000200000000000,
100010001000200020002000100010001000100000000000,
100010001000200020002000100010001000100000000000,
200020002000100010001000200020002000200000000000,
200020002000100010001000200020002000200000000000,
100000001000200000001000200000001000200000002000,
100000002000100000002000100000002000100000000000,
100010001000200020002000100010001000200020002000,
700000000000000000000000000000000000800000000000,
#GOGOSTART
100000001000200000002000100010001000200000000000,
100000001000100000001000100000001000100000000000,
100000001000200000002000100010001000200000000000,
100000001000100010001000100000000000400000000000,
200000002000100010001000200000002000100000000000,
200000002000200000002000200000002000200000000000,
200000002000100010001000200000002000100000000000,
200000002000200020002000200000000000300000000000,
100000001000200000002000100010001000200000000000,
100000001000100000001000100000001000100000000000,
100000001000200000002000100010001000200000000000,
100000001000100010001000100000000000400000000000,
200000002000100000001000200020002000100000000000,
200000002000200000002000200000002000200000000000,
200000002000100000001000200020002000100000000000,
200000002000200020002000200000000000400000000000,
100010001000200020002000100000001000200000002000,
100010001000200020002000100000001000200000001000,
200020002000100010001000200000002000100000001000,
200020002000100010001000200000002000100000000000,
100010001000200020002000100010001000200020002000,
100010001000200020002000100010001000200020002000,
100020002000100020002000100020002000100020002000,
700000000000000000000000000000000000800000000000,
#GOGOEND
#END
COURSE:Hard
LEVEL:7
BALLOON:8,5,5,5,8,5
SCOREINIT:480
SCOREDIFF:100
#START
#GOGOSTART
#SCROLL 0.75
11,
1013,
11,
1013,
11,
#BPMCHANGE 204.89
3033,
#BPMCHANGE 202.63
#SCROLL 1.01
6,
#BPMCHANGE 205.12
#SCROLL 0.75
000000000008000000000000000000000000000000000000,
#GOGOEND
#BPMCHANGE 205
1111,
2222,
1111,
001101100100,
2222,
1111,
2222,
202202200000,
1111,
2222,
1111,
002202200200,
001101100100,
002202200200,
001101100100,
002202200200,
500000000000000000000008000000000000000000000000,
600000000000000000000008000000000000000000000000,
500000000000000000000008000000000000000000000000,
600000000000000000000008000000000000000000000000,
101200100200,
1111,
7,
8,
1122,
100101000000,
1122,
100101000000,
2220,
100202000000,
2220,
100202000000,
101100200200,
100101000000,
101100200200,
100101000000,
202200200000,
100101000000,
202200200000,
100101000000,
101101101100,
202202202200,
101101101100,
202202202200,
7008,
7008,
600000000000000000000000000000000000000000000008,
,
#GOGOSTART
3333,
300303000000,
101101101101,
101101000000,
3333,
300303000000,
101101101101,
101101000000,
4444,
400404000000,
202202202202,
202202000000,
3333,
300303000000,
3434,
3,
#GOGOEND
1111,
101101101100,
1111,
100101000000,
2222,
202202202200,
201100201100,
4430,
1111,
101101101100,
1111,
7008,
2222,
202202202200,
201100201100,
201101101200,
500000000000000000000008000000000000000000000000,
600000000000000000000008000000000000000000000000,
500000000000000000000008000000000000000000000000,
600000000000000000000008000000000000000000000000,
101200100200,
101101101100,
7,
8,
#GOGOSTART
101200101200,
101101101100,
101200101200,
300303000000,
202100202100,
202202202200,
202100202100,
400404000000,
101200101200,
101101101100,
101200101200,
300303000000,
202100202100,
202202202200,
202100202100,
400404000000,
101111100000,
202222200000,
101111100000,
202222200000,
500000000000000000000008000000000000000000000000,
600000000000000000000008000000000000000000000000,
111111111111,
7008,
#GOGOEND
#END
COURSE:Normal
LEVEL:5
BALLOON:4,4,4,8
SCOREINIT:550
SCOREDIFF:140
#START
#GOGOSTART
#SCROLL 0.75
100000000000000000000000100000000000000000000000,
100000000000000000000000100000000000000000000000,
100000000000000000000000100000000000000000000000,
200000000000000000000000200000000000000000000000,
300000000000000000000000300000000000000000000000,
#BPMCHANGE 204.89
400000000000000000000000400000000000000000000000,
#BPMCHANGE 202.63
#SCROLL 1.01
600000000000000000000000000000000000000000000000,
#BPMCHANGE 205.12
#SCROLL 0.75
000000000080000000000000000000000000000000000000,
#GOGOEND
#BPMCHANGE 205
100000000000100000000000100000000000000000000000,
100000000000000000000000100000000000000000000000,
100000000000100000000000100000000000000000000000,
300000000000000000000000000000000000000000000000,
200000000000200000000000200000000000000000000000,
200000000000000000000000200000000000000000000000,
200000000000200000000000200000000000000000000000,
400000000000000000000000000000000000000000000000,
100000000000100000000000100000000000000000000000,
100000000000000000000000100000000000000000000000,
200000000000200000000000200000000000000000000000,
200000000000000000000000000000000000000000000000,
100000000000100000000000100000000000000000000000,
300000000000000000000000300000000000000000000000,
200000000000200000000000200000000000000000000000,
400000000000000000000000000000000000000000000000,
500000000000000000000080000000000000000000000000,
600000000000000000000080000000000000000000000000,
500000000000000000000080000000000000000000000000,
600000000000000000000080000000000000000000000000,
100000000000100000000000100000000000100000000000,
100000000000100000000000100000000000000000000000,
100000000000100000000000100000000000100000000000,
300000000000000000000000000000000000000000000000,
100000000000100000000000100000000000000000000000,
100000000000100000000000000000000000000000000000,
100000000000100000000000100000000000000000000000,
100000000000100000000000000000000000000000000000,
200000000000000000000000200000000000000000000000,
200000000000200000000000000000000000000000000000,
200000000000000000000000200000000000000000000000,
200000000000200000000000000000000000000000000000,
100000000000100000000000100000000000000000000000,
200000000000200000000000000000000000000000000000,
100000000000100000000000100000000000000000000000,
400000000000400000000000000000000000000000000000,
200000000000000000000000200000000000000000000000,
100000000000100000000000000000000000000000000000,
200000000000000000000000200000000000000000000000,
300000000000000000000000300000000000000000000000,
100000000000100000000000200000000000000000000000,
100000000000200000000000000000000000000000000000,
100000000000100000000000200000000000000000000000,
300000000000400000000000000000000000000000000000,
700000000000000000000000000000000008000000000000,
700000000000000000000000000000000008000000000000,
600000000000000000000000000000000000000000000080,
000000000000000000000000000000000000000000000000,
#GOGOSTART
100000000000100000000000100000000000100000000000,
100000000000100000000000100000000000000000000000,
100000000000000000000000100000000000000000000000,
100000000000100000000000100000000000000000000000,
100000000000100000000000100000000000100000000000,
100000000000100000000000100000000000000000000000,
100000000000000000000000100000000000000000000000,
100000000000100000000000100000000000000000000000,
200000000000200000000000200000000000200000000000,
200000000000200000000000200000000000000000000000,
200000000000000000000000200000000000000000000000,
200000000000200000000000200000000000000000000000,
300000000000300000000000300000000000300000000000,
300000000000300000000000300000000000000000000000,
300000000000400000000000300000000000400000000000,
300000000000000000000000000000000000000000000000,
#GOGOEND
100000000000100000000000100000000000000000000000,
100000000000100000000000000000000000000000000000,
100000000000100000000000100000000000000000000000,
300000000000300000000000000000000000000000000000,
200000000000000000000000200000000000000000000000,
100000000000100000000000000000000000000000000000,
300000000000400000000000300000000000400000000000,
300000000000300000000000300000000000000000000000,
100000000000100000000000100000000000000000000000,
100000000000100000000000000000000000000000000000,
100000000000100000000000100000000000000000000000,
700000000000000000000000000000000008000000000000,
200000000000000000000000200000000000000000000000,
100000000000100000000000100000000000000000000000,
200000000000200000000000200000000000000000000000,
300000000000300000000000300000000000000000000000,
500000000000000000000080000000000000000000000000,
600000000000000000000080000000000000000000000000,
500000000000000000000080000000000000000000000000,
600000000000000000000080000000000000000000000000,
100000000000100000000000100000000000100000000000,
100000000000100000000000100000000000100000000000,
100000000000100000000000100000000000100000000000,
300000000000000000000000000000000000000000000000,
#GOGOSTART
100000000000200000000000000000000000200000000000,
100000000000100000000000000000000000000000000000,
100000000000200000000000000000000000200000000000,
100000000000100000000000000000000000000000000000,
200000000000000000000000200000000000000000000000,
100000000000100000000000000000000000000000000000,
200000000000000000000000200000000000000000000000,
100000000000100000000000000000000000000000000000,
100000000000100000000000100000000000100000000000,
100000000000100000000000000000000000000000000000,
100000000000100000000000100000000000100000000000,
100000000000100000000000000000000000000000000000,
200000000000000000000000200000000000000000000000,
100000000000100000000000000000000000000000000000,
200000000000000000000000200000000000000000000000,
100000000000100000000000000000000000000000000000,
100000000000200000000000100000000000200000000000,
100000000000100000000000000000000000000000000000,
100000000000200000000000100000000000200000000000,
100000000000100000000000000000000000000000000000,
500000000000000000000080000000000000000000000000,
600000000000000000000080000000000000000000000000,
700000000000000000000000000000000000000000000000,
000008000000000000000000000000000000000000000000,
#GOGOEND
#END
COURSE:Easy
LEVEL:4
BALLOON:4,4,6
SCOREINIT:440
SCOREDIFF:90
#START
#GOGOSTART
100000000000000000000000100000000000000000000000,
100000000000000000000000100000000000000000000000,
100000000000000000000000100000000000000000000000,
100000000000000000000000100000000000000000000000,
300000000000000000000000300000000000000000000000,
#BPMCHANGE 204.89
300000000000000000000000300000000000000000000000,
#BPMCHANGE 202.63
#SCROLL 1.01
600000000000000000000000000000000000000000000000,
#SCROLL 0.75
#SCROLL 205.12
000000000008000000000000000000000000000000000000,
#GOGOEND
#BPMCHANGE 205
100000000000000000000000100000000000000000000000,
100000000000000000000000000000000000000000000000,
100000000000000000000000100000000000000000000000,
300000000000000000000000000000000000000000000000,
200000000000000000000000200000000000000000000000,
200000000000000000000000000000000000000000000000,
200000000000000000000000200000000000000000000000,
400000000000000000000000000000000000000000000000,
100000000000000000000000100000000000000000000000,
100000000000000000000000000000000000000000000000,
200000000000000000000000200000000000000000000000,
200000000000000000000000000000000000000000000000,
300000000000000000000000300000000000000000000000,
300000000000000000000000000000000000000000000000,
400000000000000000000000400000000000000000000000,
400000000000000000000000000000000000000000000000,
500000000000000000000008000000000000000000000000,
600000000000000000000008000000000000000000000000,
500000000000000000000008000000000000000000000000,
600000000000000000000008000000000000000000000000,
100000000000100000000000100000000000000000000000,
100000000000000000000000100000000000000000000000,
100000000000100000000000100000000000000000000000,
300000000000000000000000000000000000000000000000,
100000000000000000000000100000000000000000000000,
100000000000100000000000000000000000000000000000,
100000000000000000000000100000000000000000000000,
100000000000100000000000000000000000000000000000,
200000000000000000000000200000000000000000000000,
200000000000000000000000000000000000000000000000,
200000000000000000000000200000000000000000000000,
200000000000000000000000000000000000000000000000,
100000000000000000000000100000000000000000000000,
200000000000200000000000000000000000000000000000,
100000000000000000000000100000000000000000000000,
200000000000200000000000000000000000000000000000,
200000000000000000000000200000000000000000000000,
200000000000000000000000000000000000000000000000,
200000000000000000000000200000000000000000000000,
200000000000000000000000000000000000000000000000,
100000000000000000000000200000000000000000000000,
100000000000100000000000000000000000000000000000,
100000000000000000000000200000000000000000000000,
300000000000300000000000000000000000000000000000,
700000000000000000000000000000000008000000000000,
700000000000000000000000000000000008000000000000,
600000000000000000000000000000000000000000000008,
000000000000000000000000000000000000000000000000,
#GOGOSTART
100000000000100000000000100000000000000000000000,
100000000000100000000000100000000000000000000000,
100000000000000000000000100000000000000000000000,
100000000000100000000000100000000000000000000000,
100000000000100000000000100000000000000000000000,
100000000000100000000000100000000000000000000000,
100000000000000000000000100000000000000000000000,
100000000000100000000000100000000000000000000000,
200000000000200000000000200000000000000000000000,
200000000000200000000000200000000000000000000000,
200000000000000000000000200000000000000000000000,
200000000000200000000000200000000000000000000000,
300000000000300000000000300000000000000000000000,
300000000000300000000000300000000000000000000000,
300000000000300000000000300000000000300000000000,
300000000000000000000000000000000000000000000000,
#GOGOEND
100000000000000000000000100000000000000000000000,
100000000000100000000000100000000000000000000000,
100000000000000000000000100000000000000000000000,
300000000000000000000000000000000000000000000000,
200000000000000000000000200000000000000000000000,
100000000000100000000000100000000000000000000000,
200000000000000000000000200000000000000000000000,
300000000000300000000000300000000000000000000000,
100000000000000000000000100000000000000000000000,
100000000000100000000000100000000000000000000000,
100000000000000000000000100000000000000000000000,
400000000000000000000000000000000000000000000000,
200000000000000000000000200000000000000000000000,
100000000000100000000000100000000000000000000000,
200000000000000000000000200000000000000000000000,
300000000000300000000000300000000000000000000000,
500000000000000000000008000000000000000000000000,
600000000000000000000008000000000000000000000000,
500000000000000000000008000000000000000000000000,
600000000000000000000008000000000000000000000000,
100000000000100000000000100000000000100000000000,
100000000000100000000000100000000000100000000000,
100000000000100000000000100000000000100000000000,
300000000000000000000000000000000000000000000000,
100000000000100000000000000000000000200000000000,
100000000000100000000000000000000000000000000000,
100000000000100000000000000000000000200000000000,
100000000000100000000000000000000000000000000000,
200000000000000000000000200000000000000000000000,
100000000000100000000000000000000000000000000000,
200000000000000000000000200000000000000000000000,
100000000000100000000000000000000000000000000000,
100000000000100000000000100000000000100000000000,
100000000000100000000000000000000000000000000000,
100000000000100000000000100000000000100000000000,
100000000000100000000000000000000000000000000000,
200000000000000000000000200000000000000000000000,
100000000000100000000000000000000000000000000000,
200000000000000000000000200000000000000000000000,
100000000000100000000000000000000000000000000000,
100000000000200000000000100000000000200000000000,
100000000000100000000000000000000000000000000000,
100000000000200000000000100000000000200000000000,
100000000000100000000000000000000000000000000000,
#GOGOSTART
500000000000000000000008000000000000000000000000,
600000000000000000000008000000000000000000000000,
700000000000000000000000000000000000000000000000,
000008000000000000000000000000000000000000000000,
#GOGOEND
#END