forked from ESE/ESE
383 lines
16 KiB
Plaintext
383 lines
16 KiB
Plaintext
//TJADB Project
|
|
TITLE:Taisetsu na Mono
|
|
TITLEJA:大切なもの
|
|
SUBTITLE:--Road of Major
|
|
BPM:205
|
|
WAVE:Taisetsu na Mono.ogg
|
|
OFFSET:-1.190
|
|
DEMOSTART:76.127
|
|
|
|
COURSE:Oni
|
|
LEVEL:5
|
|
BALLOON:7,7
|
|
|
|
|
|
#START
|
|
|
|
|
|
300000000000000000000000100000000000100000000000,
|
|
100000000000000000000000200000000000200000000000,
|
|
100000000000000000000000100000000000100000000000,
|
|
100000000000000000000000200000000000200000000000,
|
|
100000000000000000000000100000000000100000000000,
|
|
100000000000000000000000200000000000200000000000,
|
|
100000000000000000100000000000000000100000000000,
|
|
100000000000000000000000000000000000000000000000,
|
|
300000000000000000000000100000000000200000000000,
|
|
100000000000000000000000100000000000000000000000,
|
|
100000000000000000000000100000000000200000000000,
|
|
100000000000000000000000100000000000000000000000,
|
|
100000000000000000000000100000000000200000000000,
|
|
100000000000000000000000000000000000200000000000,
|
|
100000000000100000100000100000100000100000100000,
|
|
100000100000100000100000100000000000100000000000,
|
|
100000000000200000000000100000000000200000100000,
|
|
000000100000200000000000100000000000200000000000,
|
|
100000000000200000000000100000000000200000100000,
|
|
000000100000200000000000100000000000200000000000,
|
|
100000000000200000000000100000000000200000100000,
|
|
000000100000200000000000100000000000200000000000,
|
|
100000000000000000000000100000000000100000300000,
|
|
000000000000000000000000100000000000100000000000,
|
|
100000000000200000000000100000000000200000100000,
|
|
000000100000200000000000100000100000200000000000,
|
|
100000000000200000000000100000000000200000100000,
|
|
000000100000200000000000100000100000200000000000,
|
|
100000000000200000000000100000000000200000100000,
|
|
000000100000200000000000100000100000200000000000,
|
|
100000000000000000100000100000000000000000000000,
|
|
100000100000000000100000000000100000000000100000,
|
|
300000000000100000000000100000000000200000000000,
|
|
100000000000200000000000100000100000200000000000,
|
|
100000000000200000000000100000000000200000000000,
|
|
100000000000200000000000100000100000200000000000,
|
|
100000000000200000000000100000000000200000000000,
|
|
100000000000200000000000100000100000200000000000,
|
|
100000000000000000100000000000000000100000000000,
|
|
300000000000000000000000000000000000100000000000,
|
|
100000000000100000000000100000000000200000000000,
|
|
100000000000200000100000100000100000200000000000,
|
|
100000000000200000000000100000000000200000000000,
|
|
100000000000200000100000100000100000200000000000,
|
|
100000000000200000000000100000000000200000000000,
|
|
100000000000200000100000100000100000200000000000,
|
|
300000000000100000100000100000100000100000000000,
|
|
100000100000100000000000300000000000300000000000,
|
|
300000000000200000000000100000100000200000000000,
|
|
100000200000000000200000100000000000200000000000,
|
|
100000000000200000000000100000100000200000000000,
|
|
100000200000000000200000100000000000200000000000,
|
|
100000000000200000000000100000100000200000000000,
|
|
100000200000000000200000100000000000200000000000,
|
|
100000000000100000000000100000100000000000300000,
|
|
000000000000000000000000300000000000300000000000,
|
|
300000000000200000000000100000100000200000000000,
|
|
100000200000000000200000100000100000200000000000,
|
|
100000000000200000000000100000100000200000000000,
|
|
100000200000000000200000100000100000100000000000,
|
|
100000000000100000000000100000000000100000000000,
|
|
100000100000100000000000100000100000100000000000,
|
|
100000100000100000100000100000100000100000100000,
|
|
300000200000000000200000000000200000000000200000,
|
|
100000000000000000000000100000000000000000000000,
|
|
100000000000100000000000100000000000100000000000,
|
|
700000000000000000000000000000000800000000000000,
|
|
100000000000100000000000100000000000100000000000,
|
|
100000000000200000000000100000200000100000000000,
|
|
100000000000100000200000100000000000200000000000,
|
|
100000100000200000100000200000100000100000200000,
|
|
300000000000000000000000000000000000000000000000,
|
|
100000000000100000000000100000000000100000000000,
|
|
100000000000000000000000100000000000100000000000,
|
|
700000000000000000000000000000000800000000000000,
|
|
100000000000100000000000100000000000100000000000,
|
|
100000000000200000000000100000200000100000000000,
|
|
200000100000200000100000100000200000100000000000,
|
|
100000000000000000100000300000000000000000000000,
|
|
|
|
|
|
#END
|
|
|
|
|
|
COURSE:Hard
|
|
LEVEL:5
|
|
BALLOON:10,8,8
|
|
SCOREINIT:830
|
|
SCOREDIFF:200
|
|
|
|
|
|
#START
|
|
|
|
|
|
300000000000000000000000100000000000100000000000,
|
|
100000000000000000000000000000000000000000000000,
|
|
100000000000000000000000100000000000100000000000,
|
|
100000000000000000000000000000000000000000000000,
|
|
100000000000000000000000100000000000100000000000,
|
|
100000000000000000000000000000000000000000000000,
|
|
100000000000000000100000000000000000100000000000,
|
|
100000000000000000000000000000000000000000000000,
|
|
300000000000000000000000100000000000200000000000,
|
|
100000000000000000000000000000000000000000000000,
|
|
100000000000000000000000100000000000200000000000,
|
|
100000000000000000000000000000000000000000000000,
|
|
100000000000000000000000100000000000200000000000,
|
|
100000000000000000000000000000000000200000000000,
|
|
700000000000000000000000000000000000000000000000,
|
|
000000800000000000000000100000000000100000000000,
|
|
100000000000200000000000100000000000200000100000,
|
|
000000100000200000000000300000000000000000000000,
|
|
100000000000200000000000100000000000200000100000,
|
|
000000100000200000000000300000000000000000000000,
|
|
100000000000200000000000100000000000200000100000,
|
|
000000100000200000000000300000000000000000000000,
|
|
100000000000000000000000100000000000100000300000,
|
|
000000000000000000000000100000000000100000000000,
|
|
100000000000200000000000100000000000200000100000,
|
|
000000100000200000000000300000000000000000000000,
|
|
100000000000200000000000100000000000200000100000,
|
|
000000100000200000000000300000000000000000000000,
|
|
100000000000200000000000100000000000200000100000,
|
|
000000100000200000000000300000000000000000000000,
|
|
100000000000000000100000100000000000000000000000,
|
|
100000100000000000100000000000100000000000100000,
|
|
300000000000100000000000100000000000200000000000,
|
|
100000000000000000000000100000100000200000000000,
|
|
100000000000200000000000100000000000200000000000,
|
|
100000000000000000000000100000100000200000000000,
|
|
100000000000200000000000100000000000200000000000,
|
|
100000000000000000000000100000100000200000000000,
|
|
100000000000000000100000000000000000100000000000,
|
|
300000000000000000000000000000000000100000000000,
|
|
100000000000100000000000100000000000200000000000,
|
|
100000000000000000000000100000100000200000000000,
|
|
100000000000200000000000100000000000200000000000,
|
|
100000000000000000000000100000100000200000000000,
|
|
100000000000200000000000100000000000200000000000,
|
|
100000000000000000000000100000100000200000000000,
|
|
300000000000100000100000100000000000100000000000,
|
|
100000100000100000000000300000000000300000000000,
|
|
300000000000200000000000100000100000100000000000,
|
|
100000200000000000200000100000000000000000000000,
|
|
100000000000200000000000100000100000100000000000,
|
|
100000200000000000200000100000000000000000000000,
|
|
100000000000200000000000100000100000100000000000,
|
|
100000200000000000200000100000000000000000000000,
|
|
100000000000100000000000100000100000000000300000,
|
|
000000000000000000000000300000000000300000000000,
|
|
300000000000200000000000100000100000100000000000,
|
|
100000200000000000200000100000000000000000000000,
|
|
100000000000200000000000100000100000100000000000,
|
|
100000200000000000200000100000000000000000000000,
|
|
100000000000100000000000100000000000100000000000,
|
|
100000100000100000000000100000100000100000000000,
|
|
100000100000100000000000100000100000100000000000,
|
|
300000000000000000200000000000200000000000200000,
|
|
100000000000000000000000100000000000000000000000,
|
|
100000000000100000000000100000000000100000000000,
|
|
700000000000000000000000000000800000000000000000,
|
|
100000000000100000000000100000000000100000000000,
|
|
100000000000200000000000100000200000100000000000,
|
|
100000000000100000200000100000000000200000000000,
|
|
100000100000200000000000100000100000200000000000,
|
|
300000000000000000000000000000000000000000000000,
|
|
100000000000100000000000100000000000100000000000,
|
|
100000000000000000000000100000000000100000000000,
|
|
700000000000000000000000000000800000000000000000,
|
|
100000000000200000000000100000200000100000000000,
|
|
100000000000100000200000100000000000200000000000,
|
|
100000100000200000000000100000100000200000000000,
|
|
100000000000000000100000300000000000000000000000,
|
|
|
|
|
|
#END
|
|
|
|
|
|
COURSE:Normal
|
|
LEVEL:5
|
|
BALLOON:7
|
|
SCOREINIT:420
|
|
SCOREDIFF:650
|
|
|
|
|
|
#START
|
|
|
|
|
|
300000000000000000000000000000000000100000000000,
|
|
100000000000000000000000000000000000000000000000,
|
|
100000000000000000000000000000000000100000000000,
|
|
100000000000000000000000000000000000000000000000,
|
|
100000000000000000000000000000000000100000000000,
|
|
100000000000000000000000000000000000000000000000,
|
|
100000000000000000100000000000000000100000000000,
|
|
100000000000000000000000000000000000000000000000,
|
|
300000000000000000000000000000000000200000000000,
|
|
100000000000000000000000000000000000000000000000,
|
|
100000000000000000000000000000000000200000000000,
|
|
100000000000000000000000000000000000000000000000,
|
|
100000000000000000000000000000000000200000000000,
|
|
100000000000000000000000000000000000200000000000,
|
|
700000000000000000000000000000000000000000000000,
|
|
000000800000000000000000100000000000100000000000,
|
|
100000000000000000000000100000000000000000000000,
|
|
100000000000000000000000100000000000100000000000,
|
|
100000000000100000000000100000100000000000100000,
|
|
000000000000000000000000100000000000100000000000,
|
|
100000000000000000000000100000000000000000000000,
|
|
100000000000100000000000100000000000100000000000,
|
|
100000000000000000000000100000000000100000100000,
|
|
000000000000000000000000100000000000100000000000,
|
|
100000000000000000000000200000000000000000000000,
|
|
100000000000000000000000100000000000100000000000,
|
|
100000000000100000000000200000200000000000100000,
|
|
000000000000000000000000100000000000100000000000,
|
|
100000000000000000000000200000000000000000000000,
|
|
100000000000100000000000100000000000100000000000,
|
|
100000000000000000100000100000000000000000000000,
|
|
000000100000000000100000000000100000000000000000,
|
|
300000000000000000000000100000000000200000000000,
|
|
100000000000000000000000100000000000100000000000,
|
|
100000000000200000000000100000000000000000000000,
|
|
100000000000000000000000100000000000200000000000,
|
|
100000000000100000000000100000000000000000000000,
|
|
100000000000200000000000100000000000000000000000,
|
|
100000000000000000100000000000000000200000000000,
|
|
100000000000000000000000100000000000000000000000,
|
|
300000000000000000000000100000000000200000000000,
|
|
100000000000000000000000100000000000100000000000,
|
|
100000000000200000000000100000000000000000000000,
|
|
100000000000000000000000100000000000200000000000,
|
|
100000000000100000000000100000000000000000000000,
|
|
100000000000200000000000100000000000100000000000,
|
|
300000000000000000000000100000000000200000000000,
|
|
100000000000000000000000100000000000100000000000,
|
|
100000000000000000000000100000000000100000000000,
|
|
100000000000000000000000100000000000200000000000,
|
|
100000000000100000000000100000100000100000100000,
|
|
000000000000000000000000100000000000100000000000,
|
|
100000000000000000000000100000000000100000000000,
|
|
100000000000000000000000100000000000100000000000,
|
|
100000000000100000000000100000100000000000100000,
|
|
000000000000000000000000100000000000100000000000,
|
|
200000000000000000000000100000000000100000000000,
|
|
200000000000000000000000100000000000100000000000,
|
|
200000000000100000000000100000100000100000100000,
|
|
000000000000000000000000000000000000000000000000,
|
|
200000000000100000000000100000000000100000000000,
|
|
100000000000100000000000100000000000100000000000,
|
|
100000000000100000000000100000000000100000000000,
|
|
300000000000000000000000000000000000000000000000,
|
|
100000000000000000000000100000000000000000000000,
|
|
100000000000100000000000100000000000100000000000,
|
|
500000000000000000000000000000800000000000000000,
|
|
100000000000100000000000100000000000100000000000,
|
|
200000000000200000000000200000000000200000000000,
|
|
100000000000000000000000100000000000100000000000,
|
|
100000000000200000000000200000000000200000000000,
|
|
100000000000000000000000000000000000000000000000,
|
|
100000000000100000000000200000000000200000000000,
|
|
100000000000000000000000100000000000100000000000,
|
|
500000000000000000000000000000800000000000000000,
|
|
200000000000200000000000200000000000200000000000,
|
|
100000000000100000000000100000000000100000000000,
|
|
200000000000000000000000100000000000100000000000,
|
|
100000000000000000100000100000000000000000000000,
|
|
|
|
|
|
#END
|
|
|
|
|
|
COURSE:Easy
|
|
LEVEL:5
|
|
BALLOON:7
|
|
SCOREINIT:930
|
|
SCOREDIFF:280
|
|
|
|
|
|
#START
|
|
|
|
|
|
300000000000000000000000000000000000000000000000,
|
|
100000000000000000000000000000000000000000000000,
|
|
100000000000000000000000100000000000000000000000,
|
|
100000000000000000000000000000000000000000000000,
|
|
100000000000000000000000000000000000000000000000,
|
|
100000000000000000000000000000000000000000000000,
|
|
100000000000000000000000100000000000000000000000,
|
|
100000000000000000000000000000000000000000000000,
|
|
300000000000000000000000000000000000000000000000,
|
|
100000000000000000000000000000000000000000000000,
|
|
100000000000000000000000200000000000000000000000,
|
|
100000000000000000000000000000000000000000000000,
|
|
100000000000000000000000200000000000000000000000,
|
|
100000000000000000000000200000000000000000000000,
|
|
700000000000000000000000000000000000000000000000,
|
|
000000000000000000800000000000000000100000000000,
|
|
100000000000000000000000100000000000000000000000,
|
|
100000000000000000000000200000000000000000000000,
|
|
100000000000000000000000100000000000000000000000,
|
|
100000000000000000000000200000000000000000000000,
|
|
100000000000000000000000100000000000000000000000,
|
|
100000000000000000000000200000000000000000000000,
|
|
100000000000000000000000100000000000100000000000,
|
|
100000000000000000000000000000000000100000000000,
|
|
100000000000000000000000200000000000000000000000,
|
|
100000000000000000000000200000000000000000000000,
|
|
100000000000000000000000200000000000000000000000,
|
|
100000000000000000000000200000000000000000000000,
|
|
100000000000000000000000200000000000000000000000,
|
|
100000000000000000000000200000000000000000000000,
|
|
100000000000100000000000100000000000000000000000,
|
|
000000100000000000100000000000100000000000000000,
|
|
300000000000000000000000000000000000200000000000,
|
|
100000000000000000000000100000000000000000000000,
|
|
100000000000000000000000000000000000200000000000,
|
|
100000000000000000000000100000000000000000000000,
|
|
100000000000000000000000000000000000200000000000,
|
|
100000000000000000000000100000000000000000000000,
|
|
100000000000000000000000000000000000200000000000,
|
|
100000000000000000000000000000000000100000000000,
|
|
100000000000000000000000000000000000100000000000,
|
|
200000000000000000000000000000000000100000000000,
|
|
100000000000000000000000000000000000100000000000,
|
|
200000000000000000000000000000000000100000000000,
|
|
100000000000000000000000100000000000000000000000,
|
|
100000000000000000000000100000000000000000000000,
|
|
300000000000000000000000000000000000100000000000,
|
|
100000000000000000000000100000000000100000000000,
|
|
100000000000000000000000200000000000000000000000,
|
|
100000000000100000000000200000000000000000000000,
|
|
100000000000000000000000200000000000000000000000,
|
|
100000000000100000000000200000000000000000000000,
|
|
100000000000000000000000200000000000000000000000,
|
|
100000000000100000000000200000000000000000000000,
|
|
100000000000100000000000100000000000100000000000,
|
|
300000000000000000000000100000000000100000000000,
|
|
100000000000000000000000200000000000000000000000,
|
|
100000000000100000000000200000000000000000000000,
|
|
100000000000000000000000200000000000000000000000,
|
|
100000000000100000000000200000000000000000000000,
|
|
100000000000100000000000100000000000000000000000,
|
|
100000000000100000000000100000000000000000000000,
|
|
100000000000100000000000100000000000100000000000,
|
|
300000000000000000000000000000000000000000000000,
|
|
100000000000000000000000100000000000000000000000,
|
|
100000000000100000000000100000000000000000000000,
|
|
500000000000000000000000000000800000000000000000,
|
|
100000000000000000000000100000000000000000000000,
|
|
100000000000100000000000100000000000000000000000,
|
|
100000000000000000000000100000000000000000000000,
|
|
100000000000100000000000100000000000000000000000,
|
|
300000000000000000000000000000000000000000000000,
|
|
100000000000000000000000100000000000000000000000,
|
|
100000000000100000000000100000000000000000000000,
|
|
500000000000000000000000000000800000000000000000,
|
|
100000000000000000000000100000000000000000000000,
|
|
100000000000100000000000100000000000000000000000,
|
|
100000000000000000000000100000000000000000000000,
|
|
100000000000000000000000300000000000000000000000,
|
|
|
|
|
|
#END
|
|
|