Files
2023-01-17 00:45:18 -05:00

269 lines
9.5 KiB
Plaintext

//TJADB Project
TITLE:Tsubomi
TITLEJA:蕾
SUBTITLE:--Kobukuro
SUBTITLEJA:「アイドルマスター シンデレラガールズ」より
BPM:76
WAVE:Tsubomi.ogg
OFFSET:-3.587
DEMOSTART:99.852
COURSE:Oni
LEVEL:4
BALLOON:24,24
SCOREINIT:830
SCOREDIFF:210
#START
200000000000000000000000200000200000200000000000,
200000000000000000200200200000200000200000000000,
200200200000200000000000200000000000000000200200,
200000000000000000200200200000200000200000200000,
200000000000000000000000000000000000000000000000,
#BPMCHANGE 75.78
100000000000100000100100100000100000100100100000,
#BPMCHANGE 76.23
100000000000100100200000000000000000100000000000,
#BPMCHANGE 75.56
100000100000100100100000100000100000100100100000,
#BPMCHANGE 76.45
200000000000200000000000000000100000100000100000,
#BPMCHANGE 76
100000100100100000100000200000000000000000000000,
100000100100100000200000100000000000000000000000,
100000200000100100100000100000200000100000100000,
100100100000100000200000000000000000000000000000,
100000000000100000100100100000100000100100100000,
#BPMCHANGE 75.33
100000000000100100200000000000000000100000000000,
#BPMCHANGE 76.44
100000100000100100100000100000100000100100100000,
#BPMCHANGE 76.24
100000200000100000000000000000100000100000100000,
#BPMCHANGE 76
100000100100100000200000100000000000000000000000,
100000100100100000200000100000000000000000000000,
100000200000100100100000100000200000100000100000,
100100100000200000000000000000000000000000000000,
100000100000200200200000100000100000200200200000,
100000100000200200200000100000000000100000100000,
100000000000200000000000100100100000200200200000,
100100100000200200200000000000000000000000000000,
100000100000200200200000100000200200200000100000,
100000200200200000000000000000000000400000300000,
000000000000400000300000000000000000400000300000,
000000000000100000200000100000100000200000100000,
7,
800000000000000000000000200000200000100000100100,
#GOGOSTART
200000100000200000000000100100200000100100200000,
100000100000200000100000100100200000100100200000,
100000100100200000000000100000100100200000200000,
300000000000400000000000100000100000100100200000,
100000100000200000100100200000100100200000100000,
100000200000100000200000100000100000100000100000,
200000000000000000100100100000100000200000100000,
100000100000100100200000100000000000000000000000,
100000100000100000100000100100200000100000000000,
100000100000100000100000100100200000100000000000,
100000100000100000100000100100200000100100200000,
500000000000000000000000000000000008000000000000,
700000000000000000000000000000000000000000000008,
#GOGOEND
#END
COURSE:Hard
LEVEL:3
BALLOON:20,20
SCOREINIT:840
SCOREDIFF:220
#START
200000000000000000000000200000200000200000000000,
200000000000000000200000200000200000200000000000,
200000000000000000000000200000000000000000200000,
200000000000000000200200200000200000200000200000,
100000000000000000000000000000000000000000000000,
100000000000100100100000100000000000100100100000,
100000000000200000000000000000000000000000000000,
100000000000100100100000100000000000100100100000,
100000000000100000000000000000100000100000100000,
100000100100100000100000100000000000000000000000,
200000000000200000200000200000000000000000000000,
100000000000100100100000100000000000100100100000,
100000000000100000100000000000000000000000000000,
100000000000100100100000100000000000100100100000,
100000000000200000000000000000000000000000000000,
100000000000100100100000100000000000100100100000,
100000000000200000000000000000100000100000100000,
100000100100100000100000100000000000000000000000,
200000000000200000200000200000000000000000000000,
100000000000100100100000100000200000100100100000,
100000000000100000000000000000000000000000000000,
100000000000200000200000100000000000200000200000,
100000000000200000200000100000000000100000100000,
100000000000000000000000100000100000100100100000,
100000000000200200200000000000000000000000000000,
100000100000200000000000100000100000200000100000,
100000100000200000000000000000000000300000300000,
000000000000300000300000000000000000300000300000,
000000000000100000200000100000200000100000200000,
700000000000000000000000000000000000000000000800,
000000000000000000000000100000100000100000000000,
#GOGOSTART
100000000000200000000000100000100000200000000000,
100000000000000000100000100000000000100000000000,
100000100000200000000000100000100000200000000000,
300000000000300000000000100000100000200000000000,
100000000000200000100100100000100000000000100000,
100000100000200000200000100000100000200000000000,
300000000000000000100000100000100000200000000000,
100000100000100100100000100000000000000000000000,
100000000000100000000000100100100000100000000000,
100000000000100000000000100100100000100000000000,
100000000000100000000000100100100000100100100000,
500000000000000000000000000000000800000000000000,
700000000000000000000000000000000000000000000800,
#GOGOEND
#END
COURSE:Normal
LEVEL:3
BALLOON:14,14
SCOREINIT:890
SCOREDIFF:260
#START
200000000000000000000000200000200000200000000000,
200000000000000000000000200000000000200000000000,
200000000000000000000000200000000000000000000000,
200000000000000000000000000000000000000000000000,
000000000000000000000000000000000000000000000000,
100000000000100000100000100000000000100000100000,
100000000000100000000000000000000000000000000000,
100000000000100000100000100000000000100000000000,
200000000000000000000000000000000000000000000000,
100000000000100000000000100000000000000000000000,
200000000000200000000000200000000000000000000000,
100000000000100000100000100000000000100000100000,
100000000000100000000000000000000000000000000000,
100000000000100000100000100000000000100000100000,
100000000000100000000000000000000000000000000000,
100000000000100000100000100000000000100000100000,
100000000000200000000000000000000000000000000000,
100000000000100000000000100000000000000000000000,
200000000000200000000000200000000000000000000000,
100000000000100000100000100000000000100000100000,
100000000000100000000000000000000000000000000000,
100000000000200000000000000000100000100000100000,
100000000000200000000000000000000000100000100000,
100000000000000000000000100000000000100000100000,
100000000000200000000000000000000000000000000000,
100000000000200000000000100000100000100000000000,
100000000000200000000000000000000000300000300000,
000000000000300000300000000000000000300000300000,
000000000000100000000000100000000000100000000000,
700000000000000000000000000000000000000000800000,
000000000000000000000000000000000000000000000000,
#GOGOSTART
300000000000000000000000100000000000200000000000,
100000000000000000200000200000000000100000000000,
100000000000000000000000100000000000200000000000,
300000000000300000000000000000000000000000000000,
300000000000000000000000100000000000100000000000,
200000200000200000000000200000200000200000000000,
300000000000000000000000100000000000200000000000,
100000100000100000000000100000000000000000000000,
300000000000300000000000300000000000300000000000,
400000000000400000000000400000000000400000000000,
300000000000300000000000300000300000300000000000,
500000000000000000000000000000800000000000000000,
700000000000000000000000000000000000000000800000,
#GOGOEND
#END
COURSE:Easy
LEVEL:3
BALLOON:10,10
SCOREINIT:860
SCOREDIFF:260
#START
200000000000000000000000200000000000200000000000,
200000000000000000000000200000000000200000000000,
200000000000000000000000200000000000000000000000,
200000000000000000000000000000000000000000000000,
200000000000000000000000000000000000000000000000,
100000000000000000000000100000000000100000100000,
100000000000000000000000000000000000000000000000,
100000000000000000000000100000000000100000100000,
100000000000000000000000000000000000000000000000,
100000000000100000000000100000000000000000000000,
200000000000200000000000200000000000000000000000,
100000000000000000000000100000000000100000100000,
100000000000000000000000000000000000000000000000,
100000000000000000000000100000000000200000200000,
200000000000000000000000000000000000000000000000,
100000000000000000000000100000000000200000200000,
200000000000000000000000000000000000000000000000,
100000000000100000000000100000000000000000000000,
200000000000200000000000200000000000000000000000,
100000000000000000000000100000000000000000000000,
100000000000100000000000000000000000000000000000,
100000000000200000000000000000000000100000000000,
100000000000200000000000000000000000100000100000,
100000000000000000000000100000000000100000000000,
100000000000200000000000000000000000000000000000,
100000100000100000000000000000000000000000000000,
100000100000100000000000000000000000300000300000,
000000000000300000300000000000000000300000300000,
000000000000500000000000000000800000000000000000,
700000000000000000000000000000000000000000800000,
000000000000000000000000000000000000000000000000,
#GOGOSTART
300000000000000000000000200000200000200000000000,
100000000000000000000000200000200000200000000000,
100000000000000000000000100000000000100000000000,
300000000000300000000000000000000000000000000000,
300000000000000000000000100000100000100000000000,
500000000000000000000000000000000000000000800000,
000000000000000000000000100000000000200000000000,
100000000000200000000000100000000000000000000000,
100000000000100000000000100000000000000000000000,
100000000000100000000000100000000000000000000000,
300000000000300000000000300000000000300000000000,
500000000000000000000000800000000000000000000000,
900000000000000000000000000000000000000000000008,
#GOGOEND
#END