Files
2023-06-15 19:00:23 -05:00

437 lines
14 KiB
Plaintext

//TJADB Project
TITLE:Wu Le Bu Zhuo
TITLEJA:無樂不作
SUBTITLE:--Van Fan/Cape No. 7
BPM:175
WAVE:Wu Le Bu Zhuo.ogg
OFFSET:-2.875
DEMOSTART:75.541
COURSE:Oni
LEVEL:6
BALLOON:40,30
SCOREINIT:560
SCOREDIFF:120
#START
100000000000200000000000100000100000200000100000,
100000100000200000000000100000100000200000000000,
100000000000200000000000100000100000200000100000,
200000100000100000200000100000100000100100100000,
000000000000000000000000000000100100100000000000,
100000100000200000000000100000200000000000200000,
100000100000200000000000100000200000000000200000,
100000100000200000000000100000200000000000200000,
100000100000200000000000100000100000200200200000,
100000100000200000000000100000200000000000200000,
100000100000200000000000100000200000000000200000,
100000100000200000000000100000200000000000200000,
100000100000200000000000100000100000200000000000,
100000100000200000000000100000200000000000200000,
100000100000200000000000100000200000000000200000,
100000100000200000000000100000200000000000200000,
100000100000200000100100100000100000200000100100,
100000100000200000000000100000200000000000200000,
100000100000200000000000100000200000000000200000,
100000100000200000000000100000200000000000200000,
#BPMCHANGE 174.82
200000100000100000200000100000100000100100100000,
#GOGOSTART
#BPMCHANGE 175
100000000000200000100100100000100000200000100000,
100000000000200000100100100000100000200000000000,
100000000000200000100100100000100000200000100000,
100000000000200000100100100000100000200000000000,
100000100000200000100100100000100000200000100000,
100000100000200000100100100000100000200000000000,
#BPMCHANGE 177.15
100000100000200000100100100000100000200000100000,
#BPMCHANGE 175
300000000000300000000000300000000000100100100000,
100000000000200000100100100000100000200000100000,
100000000000200000100100100000100000200000000000,
100000000000200000100100100000100000200000100000,
100000000000200000100100100000100000200000000000,
100000100000200000100100100000100000200000100000,
100000100000200000100100100000000000300000000000,
600000000000000000000008000000000000300000300000,
000000000000300000000000300000300000000000000000,
#GOGOEND
100000100000200000200000100000100000200000100000,
000000100000200000200000100000100000200000000000,
100000100000200000200000000000100000200000100000,
000000100000200000200000000000100000200000000000,
100000100000200000200000000000100000200000100000,
000000100000200000200000000000100000200000000000,
100000100000200000200000100000100000200000200000,
100100200000100000100100200000100000200200200000,
300000000000200000200000000000100000200000000000,
300000000000200000200000000000100000200000000000,
300000000000200000200000000000100000200000000000,
300000000000200000200000000000100000200000000000,
300000000000200000200000000000100000200000000000,
300000000000200000200000000000100000200000000000,
300000000000200000200000000000100000200000000000,
300000000000300000000000300000000000300000000000,
#GOGOSTART
100000000000200000100100100000100000200000100000,
100000000000200000100100100000100000200000000000,
100000000000200000100100100000100000200000100000,
100000000000200000100100100000100000200000000000,
100000100000200000100100100000100000200000100000,
100000100000200000100100100000000000300000000000,
600000000000000000000008000000000000300000300000,
000000000000300000000000300000300000000000700000,
#GOGOEND
000000000000000000000000000000000000000000000000,
000000000000000000000000000000000000000000000000,
000000000000000000000000000000000000000000000000,
0000000000080000,
100000000000200000100100100000100000200000100000,
100000000000200000100100100000100000200000100000,
100000100000100000200000200000200000100000100000,
200000100000100000200000500000000000000008000000,
100000000000200000100100100000100000200000100000,
100000000000200000100100100000100000200000100000,
100000000000200000100100100000100000200000000000,
300000300000000000300000300000000000300000300000,
100000000000200000100100100000100000200000100000,
100000000000200000100100100000100000200000100000,
100000000000200000100100100000100000200000100000,
200000100000100000200000100000100000100100100000,
700000000000000000000000000000000000000000000000,
000000000000000000000000000000000000000000000000,
000000000000000000000000000000000000000000000008,
#END
COURSE:Hard
LEVEL:5
BALLOON:40,40,25
SCOREINIT:680
SCOREDIFF:140
#START
10201011,
01101120,
1210,
30030030,
,
11201101,
11201100,
11201101,
11201120,
11201101,
11201100,
11201101,
11201120,
11201202,
11201020,
11201202,
11201120,
11201202,
11201020,
11201111,
#BPMCHANGE 174.82
30030000,
#GOGOSTART
#BPMCHANGE 175
10210111,
10210120,
10210111,
10210120,
10210111,
10210011,
#BPMCHANGE 177.15
10210110,
#BPMCHANGE 175
3344,
10210121,
10210110,
10210121,
10210110,
10210121,
10210010,
500000000000000000000000000000000008000000000000,
10101107,
#GOGOEND
,
,
,
00000800,
11101021,
01201110,
11101110,
500000000000000000000000000000000008000000000000,
10220020,
10220020,
10220020,
10220020,
10220020,
10220020,
10220020,
3333,
#GOGOSTART
10210121,
10210110,
10210121,
1000201000111000,
10210121,
10210121,
500000000000000000000000000000000008000000000000,
10101107,
#GOGOEND
,
,
,
00000800,
10201120,
1212,
10201120,
30030030,
1210,
10201120,
1210,
33044033,
1210,
10201120,
1210,
21120111,
7,
,
000000000000000000000000000000000000000000000008,
#END
COURSE:Normal
LEVEL:4
BALLOON:16,30,30,20
SCOREINIT:780
SCOREDIFF:180
#START
100000000000100000000000100000000000000000000000,
100000000000100000000000100000000000000000000000,
100000000000100000000000100000000000000000000000,
300000000000000000300000000000000000300000000000,
000000000000000000000000000000000000000000000000,
100000000000000000000000100000100000000000000000,
100000000000000000000000100000100000000000000000,
100000000000000000000000100000100000000000000000,
100000000000100000000000100000000000000000000000,
100000000000000000000000100000100000000000000000,
100000000000000000000000100000100000000000000000,
100000000000000000000000100000100000000000000000,
100000000000100000000000100000000000000000000000,
100000000000000000000000100000000000200000000000,
100000000000000000000000100000000000200000000000,
100000000000000000000000100000000000200000000000,
100000100000100000000000100000000000000000000000,
100000000000000000000000100000000000200000000000,
100000000000000000000000100000000000700000000000,
000000000000000000000000000000000000000000000000,
#BPMCHANGE 174.82
000000000000000000800000000000000000000000000000,
#GOGOSTART
#BPMCHANGE 175
100000000000100000100000000000100000000000000000,
100000000000100000100000000000000000000000000000,
100000000000100000100000000000100000000000000000,
100000000000100000100000000000000000000000000000,
100000000000100000100000000000100000000000000000,
100000000000100000100000000000000000000000000000,
#BPMCHANGE 177.15
100000000000100000100000000000100000000000000000,
#BPMCHANGE 175
300000000000300000000000300000000000000000000000,
100000000000100000100000000000200000000000000000,
100000000000100000100000000000000000000000000000,
100000000000100000100000000000200000000000000000,
100000000000100000100000000000000000000000000000,
100000000000100000100000000000200000000000000000,
100000000000100000100000000000000000100000000000,
500000000000000000800000000000000000000000000000,
100000000010000000001000010000000007000000000000,
#GOGOEND
000000000000000000000000000000000000000000000000,
000000000000000000000000000000000000000000000000,
000000000000000000000000000000000000000000000000,
000000000000000000000000800000000000000000000000,
100000000000200000000000100000000000100000100000,
000000000000200000000000100000000000000000000000,
100000000000100000000000100000100000100000000000,
500000000000000000000000000000000000000000000800,
000000000000200000200000000000000000200000000000,
000000000000200000200000000000000000200000000000,
000000000000200000200000000000000000200000000000,
000000000000200000200000000000000000200000000000,
000000000000200000200000000000000000200000000000,
000000000000200000200000000000000000200000000000,
000000000000200000200000000000000000200000000000,
300000000000300000000000300000000000000000000000,
#GOGOSTART
100000000000100000100000000000200000000000000000,
100000000000100000100000000000000000000000000000,
100000000000100000100000000000200000000000000000,
100000000000100000100000000000000000000000000000,
100000000000100000100000000000200000000000000000,
100000000000100000100000000000100000000000000000,
500000000000000000800000000000000000000000000000,
100000000010000000001000010000000007000000000000,
#GOGOEND
000000000000000000000000000000000000000000000000,
000000000000000000000000000000000000000000000000,
000000000000000000000000000000000000000000000000,
000000000000000000000000800000000000000000000000,
100000000000000000000000200000000000000000000000,
100000000000000000000000200000000000000000000000,
100000000000000000000000200000000000000000000000,
500000000000000000000000800000000000000000000000,
100000000000100000000000100000000000000000000000,
100000000000100000000000100000000000000000000000,
100000000000100000000000100000000000000000000000,
300000000000300000000000300000000000000000000000,
100000000000100000000000100000000000000000000000,
100000000000100000000000100000000000000000000000,
100000000000100000000000100000000000000000000000,
300000000000000000000000300000000000000000000000,
700000000000000000000000000000000000000000000000,
000000000000000000000000000000000000000000000000,
000000000000000000000000000000000000000000000008,
#END
COURSE:Easy
LEVEL:4
BALLOON:11,11,11
SCOREINIT:690
SCOREDIFF:200
#START
100000000000000000000000100000000000000000000000,
100000000000000000000000000000000000000000000000,
100000000000000000000000100000000000000000000000,
100000000000000000000000000000000000000000000000,
000000000000000000000000000000000000000000000000,
100000000000000000000000100000000000000000000000,
100000000000100000000000100000000000000000000000,
100000000000000000000000100000000000000000000000,
100000000000100000000000100000000000000000000000,
100000000000000000000000100000000000000000000000,
100000000000100000000000100000000000000000000000,
100000000000000000000000100000000000000000000000,
100000000000100000000000100000000000000000000000,
100000000000000000000000100000000000100000000000,
000000000000000000000000100000000000100000000000,
000000000000000000000000000000000000000000000000,
200000000000000000000000200000000000000000000000,
000000000000000000000000100000000000100000000000,
000000000000000000000000100000000000500000000000,
000000000000000000000000000000000000000000000000,
#BPMCHANGE 174.82
000000000000800000000000000000000000000000000000,
#GOGOSTART
#BPMCHANGE 175
100000000000100000000000000000000000100000000000,
100000000000100000000000000000000000000000000000,
100000000000100000000000000000000000100000000000,
100000000000100000000000000000000000000000000000,
100000000000100000000000000000000000100000000000,
100000000000100000000000000000000000000000000000,
#BPMCHANGE 177.15
100000000000100000000000000000000000000000000000,
#BPMCHANGE 175
300000000000000000000000300000000000000000000000,
100000000000100000000000000000000000100000000000,
100000000000100000000000000000000000000000000000,
100000000000100000000000000000000000100000000000,
100000000000100000000000000000000000000000000000,
100000000000100000000000000000000000100000000000,
100000000000100000000000000000000000000000000000,
100000000000000000000000000000000000000000000000,
300000000000000000000000300000000000000000000000,
#GOGOEND
700000000000000000000000000000000000000000000000,
000000000000000000000000000000000000000000000000,
000000000000000000000000000000000000000000000000,
000000000000000000000000800000000000000000000000,
100000000000000000000000100000000000000000000000,
200000000000000000000000200000000000000000000000,
100000000000100000000000100000000000100000000000,
500000000000000000000000800000000000000000000000,
300000000000000000000000000000000000000000000000,
300000000000000000000000000000000000000000000000,
300000000000000000000000000000000000000000000000,
300000000000000000000000000000000000000000000000,
300000000000000000000000000000000000000000000000,
300000000000000000000000000000000000000000000000,
300000000000000000000000000000000000000000000000,
300000000000300000000000300000000000000000000000,
#GOGOSTART
100000000000100000000000000000000000100000000000,
100000000000100000000000000000000000000000000000,
100000000000100000000000000000000000100000000000,
100000000000100000000000000000000000000000000000,
100000000000100000000000000000000000100000000000,
100000000000100000000000000000000000000000000000,
100000000000000000000000000000000000000000000000,
100000000000000000000000100000000000000000000000,
#GOGOEND
700000000000000000000000000000000000000000000000,
000000000000000000000000000000000000000000000000,
000000000000000000000000000000000000000000000000,
000000000000000000000000800000000000000000000000,
100000000000000000000000200000000000000000000000,
100000000000000000000000200000000000000000000000,
100000000000000000000000200000000000000000000000,
300000000000000000000000000000000000000000000000,
100000000000100000000000100000000000000000000000,
100000000000100000000000100000000000000000000000,
100000000000100000000000100000000000000000000000,
300000000000000000000000000000000000000000000000,
100000000000100000000000100000000000000000000000,
100000000000100000000000100000000000000000000000,
100000000000100000000000100000000000000000000000,
300000000000000000000000300000000000000000000000,
700000000000000000000000000000000000000000000000,
000000000000000000000000000000000000000000000000,
000000000000000000000000000000000000000000000008,
#END