forked from ESE/ESE
401 lines
16 KiB
Plaintext
401 lines
16 KiB
Plaintext
//TJADB Project
|
|
TITLE:Yes
|
|
TITLEJA:イエス
|
|
SUBTITLE:--Acid Black Cherry/Sukkiri‼
|
|
BPM:108
|
|
WAVE:Yes.ogg
|
|
OFFSET:-2.528
|
|
DEMOSTART:127.713
|
|
|
|
COURSE:Oni
|
|
LEVEL:6
|
|
BALLOON:10,10,40
|
|
SCOREINIT:600
|
|
SCOREDIFF:150
|
|
|
|
|
|
#START
|
|
|
|
|
|
000000000000000000000000000000000000000000000000,
|
|
000000000000000000000000000000000000000000000000,
|
|
000000000000000000200000200000000000200000200000,
|
|
000000200000000000200000200000000000200000200000,
|
|
000000200000000000200000200000000000200000200000,
|
|
200000000000200000000500008000000000200000000500,
|
|
000000000008000000000000200000200000200000200000,
|
|
200000000000200000200000000000200000000000200000,
|
|
200000200000000000200000000000200000200000200000,
|
|
200000000000200000200000000000200000000000500000,
|
|
000008000000000000300000300000300000300000400000,
|
|
|
|
#GOGOSTART
|
|
000000400000000000100100200000100000100000400000,
|
|
000000400000000000100100200000100000100000200000,
|
|
200000000000400000000600008000000000400000000600,
|
|
000000000008000000000000100000100100200000100000,
|
|
100000100100200000100000000000100000200000100100,
|
|
100000100000200000100000000000100000200000100000,
|
|
500000000000000000000000000000000000000000000008,
|
|
000000000000000000100000100000100100200000100000,
|
|
100000100100200000100000000000100000200000100100,
|
|
100000100000200000100000000000100100100000100000,
|
|
500000000000000000000008000000000000000000000000,
|
|
400000000000400000000000400000000000400000000000,
|
|
300000100000200000100100000100100000200000000000,
|
|
100000100000200000100100000100100000200000100200,
|
|
100000100000200000100100000100100000200000000000,
|
|
100000100000200000100100000100100000200000100200,
|
|
100000100000200000100100000100100000200000000000,
|
|
100000100000200000100000200200100000100000100100,
|
|
500000000000000000000000000000000008000000000000,
|
|
700000000000000000000000000000000000800000000000,
|
|
|
|
#GOGOEND
|
|
100000200200100000200000000000200000000000200000,
|
|
100000200200100000200000000000200000000000200000,
|
|
100000200200100000200000000000200000000000200000,
|
|
100000200200100000200000000000200000000000200000,
|
|
100000200200100000200000000000200000000000200000,
|
|
100000200200100000200000000000200000000000200000,
|
|
100000200200100000200000000000200000000000200000,
|
|
100000200200100000200000100000100000200000000000,
|
|
100000000000200000100100100000100000200000000000,
|
|
100000100100200000100000000000100000200000000000,
|
|
100000000000200000100100100000100000200000000000,
|
|
100000100100200000100000000000100000200000000000,
|
|
100000000000200000100100100000100000200000000000,
|
|
100000100100200000100000000000100000200000000000,
|
|
100000000000200000100100100000100000200000100000,
|
|
000000100000200000100100100000100000200000000000,
|
|
500000000008000000100000100000000000000000000000,
|
|
100000100000200000200200100000100000200000200200,
|
|
100000000000200000100000000000200200100000500000,
|
|
000008000000000000200200100000100000200000000000,
|
|
500000000008000000100000100000000000200000000000,
|
|
100000200200100000200000000000200000200000200000,
|
|
500000000000000000000000000008000000000000300000,
|
|
300000000000300000000000400000000000400000000000,
|
|
600000000008000000700000000000000000000000000000,
|
|
800000000000000000300000300000300000300000400000,
|
|
|
|
#GOGOSTART
|
|
000000400000000000100100200000100000100000400000,
|
|
000000400000000000100100200000100000100000200000,
|
|
200000000000400000600008000000000000400000600008,
|
|
000000400000000000000000100000100100200000100000,
|
|
100000100100200000100000000000100000200000100100,
|
|
100000100000200000100000000000100000200200100000,
|
|
100000100100200000100000000000100000000000500000,
|
|
000008000000000000300000300000300000300000400000,
|
|
000000400000000000100100200000100000100000400000,
|
|
000000400000000000100100200000100000100000200000,
|
|
200000000000400000600008000000000000400000600008,
|
|
000000400000000000000000100000100100200000100000,
|
|
100000100100200000100000000000100000200000100100,
|
|
100000100000200000100000000000100000200000100000,
|
|
500000000000000000000000000000000000000000000008,
|
|
000000000000000000100000100000100100200000100000,
|
|
100000100100200000100000000000100000200000100100,
|
|
100000100000200000100000000000100000200000100000,
|
|
700000000000000000000000000000000000000000000000,
|
|
000000000000000000000000000000000000800000000000,
|
|
|
|
#GOGOEND
|
|
|
|
|
|
#END
|
|
|
|
|
|
COURSE:Hard
|
|
LEVEL:5
|
|
BALLOON:8,32
|
|
SCOREINIT:710
|
|
SCOREDIFF:195
|
|
|
|
|
|
#START
|
|
|
|
|
|
000000000000000000000000000000000000000000000000,
|
|
000000000000000000000000000000000000000000000000,
|
|
000000000000000000000000000000000000000000000000,
|
|
200000000000000000000000000000000000000000000000,
|
|
200000000000000000000000200000000000200000000000,
|
|
200000000000000000000000200000000000000000000000,
|
|
200000000000000000000000000000000000000000000000,
|
|
200000000000000000000000000000000000000000000000,
|
|
200000000000000000000000200000000000000000000000,
|
|
200000000000000000000000200000000000200000000000,
|
|
200000000000000000000000000000000000000000000000,
|
|
#GOGOSTART
|
|
300000000000200000100100100000100000100000000000,
|
|
100000000000200000100100100000100000100000000000,
|
|
100000000000400000000600800000000000400000000600,
|
|
000000000800000000000000100000100000200000200000,
|
|
100000000000100000100000000000100000200000100000,
|
|
100000000000100000100000000000100000200000100000,
|
|
500000000000000000000000000000000800000000000000,
|
|
000000000000000000100000100000200000200000100000,
|
|
100000000000100000100000000000100100100000100000,
|
|
100000000000100000100000000000100100100000100000,
|
|
500000000000000000000800000000000000000000000000,
|
|
400000000000400000000000400000000000400000000000,
|
|
300000000000200000000000000000100000200000000000,
|
|
100000000000200000100000000000100000200000000000,
|
|
100000000000200000000000000000100000200000000000,
|
|
100000000000200000100000000000100000200000000000,
|
|
300000000000200000000000000000100000200000000000,
|
|
300000000000200000100000000000100000200000000000,
|
|
500000000000000000000000000000800000000000000000,
|
|
700000000000000000800000000000000000000000000000,
|
|
#GOGOEND
|
|
100000000000200000200000000000200000000000000000,
|
|
100000000000200000200000000000200000000000000000,
|
|
100000000000200000200000000000200000000000500000,
|
|
000000000000800000000000000000000000000000000000,
|
|
100000000000200000200000000000200000000000000000,
|
|
100000000000200000200000000000200000000000000000,
|
|
100000000000200000200000000000200000000000500000,
|
|
000000800000000000000000000000000000000000000000,
|
|
100000100000200000100000000000100000200000000000,
|
|
100000100000200000100000000000100000200000000000,
|
|
100100100000100000100000000000100000200000000000,
|
|
100100100000100000100000000000100000200000000000,
|
|
100000100000200000100000000000100000200000000000,
|
|
100000100000200000100000000000100000200000000000,
|
|
100100100000100000100000000000100000200000000000,
|
|
100000000000200000100000100000000000100000000000,
|
|
500000800000000000100000100000000000200000000000,
|
|
100000100000200000200000100000100000200000200000,
|
|
100000000000100000100000000000100000200000500000,
|
|
800000000000000000100000100000000000200000000000,
|
|
500000800000000000100000100000000000000000000000,
|
|
100000100000200000200000000000100000200000200000,
|
|
500000000000000000000000800000000000000000000000,
|
|
300000000000300000000000400000000000400000000000,
|
|
600000000000000000000000000000000000000000800000,
|
|
000000000000000000000000000000000000000000000000,
|
|
#GOGOSTART
|
|
300000000000200000100100100000100000100000000000,
|
|
100000000000200000100100100000100000100000000000,
|
|
100000000000400000600800000000000000400000600000,
|
|
000000000800000000000000100000100000200000100000,
|
|
100000000000200000100000000000100000200000100000,
|
|
100000000000200000100000000000100000200000100000,
|
|
100000000000200000200000000000200000000000500000,
|
|
000000000800000000000000000000000000000000000000,
|
|
300000000000200000100100100000100000100000000000,
|
|
100000000000200000100100100000100000100000000000,
|
|
100000000000400000600800000000000000400000600000,
|
|
000000000800000000000000100000100000200000200000,
|
|
100000000000100000100000000000100100100000100000,
|
|
100000000000100000100000000000100100100000100000,
|
|
500000000000000000000000000000000000000000000800,
|
|
000000000000000000100000100000200000200000100000,
|
|
100000000000100000100000000000100100100000100000,
|
|
100000000000100000100000000000100100100000100000,
|
|
700000000000000000000000000000000000000000000000,
|
|
000000000000000000000000000000000000000000000008,
|
|
|
|
#GOGOEND
|
|
|
|
|
|
#END
|
|
|
|
|
|
COURSE:Normal
|
|
LEVEL:4
|
|
BALLOON:5,10,10,10,20
|
|
SCOREINIT:810
|
|
SCOREDIFF:253
|
|
|
|
|
|
#START
|
|
|
|
|
|
000000000000000000000000000000000000000000000000,
|
|
000000000000000000000000000000000000000000000000,
|
|
000000000000000000000000000000000000000000000000,
|
|
100000000000000000000000000000000000000000000000,
|
|
100000000000000000000000000000000000000000000000,
|
|
100000000000000000000000100000000000000000000000,
|
|
100000000000000000000000000000000000000000000000,
|
|
100000000000000000000000100000000000000000000000,
|
|
100000000000000000000000100000000000100000000000,
|
|
100000000000000000000000100000000000100000000000,
|
|
100000000000000000000000000000000000000000000000,
|
|
#GOGOSTART
|
|
300000000000200000000000100000100000100000000000,
|
|
100000000000200000000000100000100000100000000000,
|
|
100000000000400000000000000000000000400000000000,
|
|
600000000000000000800000000000000000000000000000,
|
|
100000100000100000000000100000000000000000000000,
|
|
200000200000200000000000200000000000000000000000,
|
|
500000000000000000000000000000000000000000800000,
|
|
000000000000000000000000000000000000000000000000,
|
|
100000100000100000000000100000000000000000000000,
|
|
200000200000200000000000200000000000000000000000,
|
|
500000000000000000800000000000000000000000000000,
|
|
400000000000400000000000400000000000400000000000,
|
|
300000000000000000000000000000000000000000000000,
|
|
100000000000100000000000100000000000000000000000,
|
|
100000000000000000000000000000000000000000000000,
|
|
100000000000100000000000100000000000000000000000,
|
|
400000000000000000000000000000000000000000000000,
|
|
200000000000200000000000200000000000000000000000,
|
|
500000000000000000000000000000800000000000000000,
|
|
#GOGOEND
|
|
700000000000000000800000000000000000000000000000,
|
|
100000000000000000000000100000000000000000000000,
|
|
100000000000100000000000100000000000000000000000,
|
|
100000000000000000000000100000000000000000000000,
|
|
100000000000000000000000000000000000000000000000,
|
|
200000000000000000000000200000000000000000000000,
|
|
200000000000200000000000200000000000000000000000,
|
|
200000000000000000000000200000000000000000000000,
|
|
500000000000000000800000000000000000000000000000,
|
|
100000000000100000000000200000000000000000000000,
|
|
100000000000100000000000200000000000000000000000,
|
|
100000000000100000000000200000000000000000000000,
|
|
100000000000100000000000200000000000000000000000,
|
|
100000100000100000000000200000000000000000000000,
|
|
100000100000100000000000200000000000000000000000,
|
|
100000100000100000000000200000000000000000000000,
|
|
100000100000100000000000200000000000200000000000,
|
|
500000000000000000800000000000000000000000000000,
|
|
100000000000200000000000100000000000200000000000,
|
|
100000000000000000000000100000000000100000000000,
|
|
100000000000000000000000200000000000200000000000,
|
|
500000000000000000800000000000000000000000000000,
|
|
100000000000200000000000100000000000200000000000,
|
|
500000000000000000000000800000000000000000000000,
|
|
300000000000300000000000400000000000400000000000,
|
|
9,
|
|
8,
|
|
|
|
#GOGOSTART
|
|
300000000000200000000000100000100000100000000000,
|
|
100000000000200000000000100000100000100000000000,
|
|
100000000000400000400000000000000000400000400000,
|
|
000000600000800000000000000000000000000000000000,
|
|
300000000000200000000000100000100000100000000000,
|
|
100000000000200000000000100000100000100000000000,
|
|
700000000000000000000000000000000000000000800000,
|
|
000000000000000000000000000000000000000000000000,
|
|
300000000000200000000000100000100000100000000000,
|
|
100000000000200000000000100000100000100000000000,
|
|
100000000000400000400000000000000000400000400000,
|
|
000000600000800000000000000000000000000000000000,
|
|
100000100000100000000000100000000000000000000000,
|
|
200000200000200000000000200000000000000000000000,
|
|
700000000000000000000000000000000000000000800000,
|
|
000000000000000000000000000000000000000000000000,
|
|
100000100000100000000000100000000000000000000000,
|
|
200000200000200000000000200000000000000000000000,
|
|
900000000000000000000000000000000000000000000000,
|
|
000000000000000000000000000000000000000000000008,
|
|
|
|
#GOGOEND
|
|
|
|
|
|
#END
|
|
|
|
|
|
COURSE:Easy
|
|
LEVEL:3
|
|
BALLOON:3,6,6,6,12
|
|
SCOREINIT:700
|
|
SCOREDIFF:238
|
|
|
|
|
|
#START
|
|
|
|
|
|
000000000000000000000000000000000000000000000000,
|
|
000000000000000000000000000000000000000000000000,
|
|
000000000000000000000000000000000000000000000000,
|
|
100000000000000000000000000000000000000000000000,
|
|
100000000000000000000000000000000000000000000000,
|
|
100000000000000000000000100000000000000000000000,
|
|
100000000000000000000000000000000000000000000000,
|
|
100000000000000000000000000000000000000000000000,
|
|
100000000000000000000000000000000000000000000000,
|
|
100000000000000000000000100000000000000000000000,
|
|
100000000000000000000000000000000000000000000000,
|
|
#GOGOSTART
|
|
300000000000000000000000100000000000100000000000,
|
|
100000000000000000000000100000000000100000000000,
|
|
100000000000400000000000000000000000400000000000,
|
|
600000000000800000000000000000000000000000000000,
|
|
100000000000100000000000100000000000000000000000,
|
|
100000000000100000000000100000000000000000000000,
|
|
500000000000000000000000000000000000800000000000,
|
|
000000000000000000000000000000000000000000000000,
|
|
100000000000100000000000100000000000000000000000,
|
|
100000000000100000000000100000000000000000000000,
|
|
500000000000800000000000000000000000000000000000,
|
|
400000000000400000000000400000000000400000000000,
|
|
300000000000000000000000000000000000000000000000,
|
|
100000000000000000000000100000000000000000000000,
|
|
100000000000000000000000000000000000000000000000,
|
|
100000000000000000000000100000000000000000000000,
|
|
200000000000000000000000000000000000000000000000,
|
|
200000000000000000000000200000000000000000000000,
|
|
500000000000000000000000800000000000000000000000,
|
|
700000000000000000800000000000000000000000000000,
|
|
#GOGOEND
|
|
200000000000000000000000200000000000000000000000,
|
|
200000000000000000000000000000000000000000000000,
|
|
200000000000000000000000200000000000000000000000,
|
|
200000000000000000000000000000000000000000000000,
|
|
200000000000000000000000200000000000000000000000,
|
|
200000000000000000000000000000000000000000000000,
|
|
200000000000000000000000200000000000000000000000,
|
|
500000000000800000000000000000000000000000000000,
|
|
100000000000000000000000100000000000100000000000,
|
|
100000000000000000000000100000000000000000000000,
|
|
100000000000000000000000100000000000100000000000,
|
|
100000000000000000000000000000000000000000000000,
|
|
100000000000000000000000100000000000100000000000,
|
|
100000000000000000000000100000000000000000000000,
|
|
100000000000000000000000100000000000100000000000,
|
|
100000000000000000000000100000000000100000000000,
|
|
500000000000800000000000000000000000000000000000,
|
|
100000000000100000000000100000000000000000000000,
|
|
200000000000200000000000200000000000000000000000,
|
|
200000000000200000000000200000000000000000000000,
|
|
500000000000800000000000000000000000000000000000,
|
|
100000000000200000000000100000000000200000000000,
|
|
500000000000000000000000800000000000000000000000,
|
|
300000000000300000000000400000000000400000000000,
|
|
9,
|
|
8,
|
|
|
|
#GOGOSTART
|
|
300000000000000000000000100000000000100000000000,
|
|
100000000000000000000000100000000000100000000000,
|
|
100000000000400000000000000000000000400000000000,
|
|
600000000000000000800000000000000000000000000000,
|
|
100000000000100000000000100000000000000000000000,
|
|
100000000000100000000000100000000000000000000000,
|
|
700000000000000000000000000000000000000000800000,
|
|
000000000000000000000000000000000000000000000000,
|
|
300000000000000000000000100000000000100000000000,
|
|
100000000000000000000000100000000000100000000000,
|
|
100000000000400000000000000000000000400000000000,
|
|
600000000000000000800000000000000000000000000000,
|
|
100000000000000000000000100000000000000000000000,
|
|
100000000000100000000000100000000000100000000000,
|
|
700000000000000000000000000000000000000000800000,
|
|
000000000000000000000000000000000000000000000000,
|
|
100000000000000000000000100000000000000000000000,
|
|
100000000000100000000000100000000000100000000000,
|
|
900000000000000000000000000000000000000000000000,
|
|
000000000000000000000000000000000000000000000008,
|
|
#GOGOEND
|
|
|
|
|
|
#END
|
|
|