Files
2023-06-15 19:15:39 -05:00

305 lines
9.4 KiB
Plaintext
Raw Permalink Blame History

This file contains ambiguous Unicode characters
This file contains Unicode characters that might be confused with other characters. If you think that this is intentional, you can safely ignore this warning. Use the Escape button to reveal them.
//TJADB Project
TITLE:Chuwapane!
TITLEJA:チュワパネ!
SUBTITLE:--Girls²/Secret × Heroine Phantomirage!
SUBTITLEJA:「ひみつ×戦士 ファントミラージュ!」より
BPM:144
WAVE:Chuwapane!.ogg
OFFSET:-0.909
DEMOSTART:53.157
COURSE:Oni
LEVEL:5
SCOREINIT:3470
SCOREDIFF:0
#START
3,
,
3,
03033330,
#GOGOSTART
10211120,
11211020,
10211121,
01210110,
#GOGOEND
10211021,
10212020,
10211021,
10210220,
10101101,
20202202,
0010101010111010,
01210120,
10211121,
01211120,
10211121,
01211120,
20202202,
02022020,
30101115,
000000000000000008000000100000000100000000100000,
10010120,
10010120,
10010121,
1000001110202000,
1022002010002000,
1022002020001000,
1010101110101030,
,
#GOGOSTART
1000201110102010,
11211020,
1000201110102010,
01210220,
1000201110102010,
01211120,
1010201020111010,
0020001110102000,
1000201110102010,
11211020,
1000201110102010,
01210220,
1000201110102010,
01211120,
1010201020111010,
000000500000000000000008000000000000400000000000,
#GOGOEND
10201120,
10201120,
10201121,
03033330,
4,
#END
COURSE:Hard
LEVEL:3
BALLOON:7,7
SCOREINIT:4790
SCOREDIFF:0
#START
300000000000000000000000000000000000000000000000,
000000000000000000000000000000000000000000000000,
300000000000000000000000000000000000000000000000,
000000300000000000300000300000300000300000000000,
#GOGOSTART
100000000000100000100000100000000000200000000000,
100000000000100000000000100000000000000000000000,
100000000000100000100000100000000000100000100000,
000000100000000000100000000000000000000000000000,
#GOGOEND
100000000000000000100000100000000000000000100000,
100000000000100000000000200000000000200000000000,
100000000000000000100000100000000000000000100000,
100000000000100000000000000000200000200000000000,
100000000000100000000000100000100000000000100000,
200000000000200000000000200000200000000000200000,
100000000000100000000000100000100000100000500000,
000000000000000000000080000000000000000000000000,
100000000000100000100000100000000000100000700000,
000000000000000000800000000000000000000000000000,
100000000000100000100000100000000000100000700000,
000000000000000000800000000000000000000000000000,
200000000000200000000000200000200000000000200000,
000000200000000000200000200000000000200000000000,
300000000000100000000000100000100000100000500000,
000000000000000000000080000000000000000000000000,
100000000000000000200000000000200000200000000000,
100000000000000000200000000000200000200000000000,
100000000000000000200000000000200000200000000000,
100000000000000000100000100000200000200000000000,
100000100100000000100000100000000000000000000000,
100000100100000000100000100000000000000000000000,
100000000000100000000000100000100000100000300000,
000000000000000000000000000000000000000000000000,
#GOGOSTART
100000000000100000100000100000000000200000000000,
100000100000100000000000100000000000200000000000,
100000000000100000100000100000000000200000100000,
000000100000100000100000000000200000200000000000,
100000000000100000100000100000000000200000100000,
000000100000000000100000000000100000200000000000,
100000000000200000100000100000000000200000100000,
000000200000000000500000000000000080000000000000,
100000000000100000100000100000000000200000000000,
100000100000100000000000100000000000200000000000,
100000000000100000100000100000000000200000100000,
000000100000100000100000000000200000200000000000,
100000000000100000100000100000000000200000100000,
000000100000000000100000000000100000200000000000,
100000000000200000100000100000000000200000100000,
000000500000000000000080000000000000400000000000,
#GOGOEND
100000000000100000000000100000100000100000000000,
100000000000200000000000100000000000200000000000,
100000000000100000000000100000100000100000100000,
000000300000000000300000300000300000300000000000,
400000000000000000000000000000000000000000000000,
#END
COURSE:Normal
LEVEL:1
BALLOON:5,4,6,5,6,11
SCOREINIT:10680
SCOREDIFF:0
#START
300000000000000000000000000000000000000000000000,
000000000000000000000000000000000000000000000000,
300000000000000000000000000000000000000000000000,
300000000000000000000000300000000000300000000000,
#GOGOSTART
100000000000000000000000100000000000000000000000,
100000000000100000000000100000000000000000000000,
100000000000000000000000100000000000000000700000,
000000000000000000800000000000000000000000000000,
#GOGOEND
100000000000000000000000100000000000000000000000,
100000000000000000000000000000000000000000000000,
100000000000000000000000100000000000000000000000,
100000000000000000000000000000000000000000000000,
100000000000100000000000100000000000000000000000,
200000000000200000000000200000000000000000000000,
100000000000000000000000000000000000000000500000,
000000000000000000000080000000000000000000000000,
100000000000000000000000100000000000000000000000,
200000000000000000000000000000000000000000000000,
100000000000000000000000100000000000000000000000,
200000000000000000000000000000000000000000000000,
200000000000200000000000200000000000000000000000,
200000000000200000000000200000000000000000000000,
300000000000000000000000000000000000000000500000,
000000000000000000000080000000000000000000000000,
100000000000000000000000200000000000000000000000,
100000000000000000000000200000000000000000000000,
100000000000000000000000200000000000000000000000,
100000000000000000000000200000000000200000000000,
100000000000000000000000100000000000000000000000,
100000000000000000000000100000000000000000000000,
100000000000100000000000700000000000000000800000,
000000000000000000000000000000000000000000000000,
#GOGOSTART
100000000000100000000000100000000000000000000000,
100000000000100000000000200000000000000000000000,
100000000000100000000000100000000000000000700000,
000000000000000000000000800000000000000000000000,
100000000000100000000000100000000000000000500000,
000000000000000000000000000080000000000000000000,
100000000000100000000000700000000000000000000000,
800000000000000000000000100000000000100000000000,
100000000000100000000000100000000000000000000000,
100000000000100000000000200000000000000000000000,
100000000000100000000000100000000000000000700000,
000000000000000000000000800000000000000000000000,
100000000000100000000000100000000000000000500000,
000000000000000000000000000080000000000000000000,
100000000000100000000000700000000000000000000000,
000000000000000000000000000000800000000000000000,
#GOGOEND
100000000000000000000000100000000000000000000000,
200000000000000000000000200000000000000000000000,
100000000000000000000000100000000000000000000000,
300000000000000000000000300000000000300000000000,
300000000000000000000000000000000000000000000000,
#END
COURSE:Easy
LEVEL:1
BALLOON:4,3,5,4,5,8
SCOREINIT:16570
SCOREDIFF:0
#START
300000000000000000000000000000000000000000000000,
000000000000000000000000000000000000000000000000,
300000000000000000000000000000000000000000000000,
300000000000000000000000300000000000000000000000,
#GOGOSTART
100000000000000000000000100000000000000000000000,
100000000000000000000000000000000000000000000000,
100000000000000000000000100000000000000000700000,
000000000000000000800000000000000000000000000000,
#GOGOEND
100000000000000000000000000000000000000000000000,
100000000000000000000000000000000000000000000000,
100000000000000000000000000000000000000000000000,
100000000000000000000000000000000000000000000000,
100000000000000000000000100000000000000000000000,
200000000000000000000000200000000000000000000000,
100000000000000000000000000000000000000000500000,
000000000000000000000080000000000000000000000000,
100000000000000000000000100000000000000000000000,
100000000000000000000000000000000000000000000000,
100000000000000000000000100000000000000000000000,
100000000000000000000000000000000000000000000000,
200000000000000000000000200000000000000000000000,
200000000000000000000000200000000000000000000000,
300000000000000000000000000000000000000000500000,
000000000000000000000080000000000000000000000000,
100000000000000000000000000000000000000000000000,
100000000000000000000000000000000000000000000000,
100000000000000000000000000000000000000000000000,
100000000000000000000000000000000000000000000000,
200000000000000000000000200000000000000000000000,
200000000000000000000000200000000000000000000000,
100000000000000000000000700000000000000000800000,
000000000000000000000000000000000000000000000000,
#GOGOSTART
100000000000000000000000100000000000000000000000,
100000000000000000000000000000000000000000000000,
100000000000000000000000100000000000000000700000,
000000000000000000000000800000000000000000000000,
100000000000000000000000100000000000000000500000,
000000000000000000000000000080000000000000000000,
100000000000000000000000700000000000000000000000,
800000000000000000000000000000000000000000000000,
100000000000000000000000100000000000000000000000,
100000000000000000000000000000000000000000000000,
100000000000000000000000100000000000000000700000,
000000000000000000000000800000000000000000000000,
100000000000000000000000100000000000000000500000,
000000000000000000000000000080000000000000000000,
100000000000000000000000700000000000000000000000,
000000000000000000000000000000800000000000000000,
#GOGOEND
100000000000000000000000100000000000000000000000,
000000000000000000000000000000000000000000000000,
100000000000000000000000100000000000000000000000,
300000000000000000000000000000000000000000000000,
300000000000000000000000000000000000000000000000,
#END