Files
2023-06-15 19:15:39 -05:00

277 lines
10 KiB
Plaintext

//TJADB Project
TITLE:Climax Jump
TITLEJA:Climax Jump
SUBTITLE:--AAA DEN-O form/Kamen Rider Den-O
SUBTITLEJA:「仮面ライダー電王」より
BPM:170
WAVE:Climax Jump.ogg
OFFSET:-5.851
DEMOSTART:51.012
COURSE:Oni
LEVEL:8
SCOREINIT:740
SCOREDIFF:180
#START
100000100000200000000000100000000000200000000000,
100000100000200000000000100000000000200000000000,
100000100000200000000000100000100000200000000000,
100000100000200000000000100000100000200000000000,
100000100000200000000000100000000000200000000000,
100000100000200000000000100000000000200000000000,
100000000000000000000000100000000000000000000000,
100000000000000000000000100000200000100100100000,
100000200000100000200000100000200000100000200000,
100000200000100000200000100000200000100000200000,
100000000000200000000000100000000000200000000000,
100000000000200000000000100000200000100100100100,
200000000000200000000000100000100000200200100000,
000000100100200000100000100000000000200000000000,
100100100100200000000000100000100000200200100000,
000000100100200000100000100000000000400000000000,
100000100000200000200100100000100000200000200200,
100000100000200000200100100000100000200000200200,
100000100000200000200200100000100000200000200200,
100000100000200000200200100000200000100000200200,
100000100000200000200100100000100000200000200200,
100000100000200000200100100000100000200000200200,
100000100000200000200100100000100000200000200200,
100000000000300000000000300000400000000000100000,
100000100100200000100000100000100100200000200000,
100000100100200000100000000000200000100000200000,
100000100100200000100000100000100100200000200000,
100000100100200000100000000000200000100000200000,
100000000000100100200000000000100100200000000000,
200200100000000000200200100000100000200000000000,
100100100000200000200000100100100100200000200000,
500000000000000008000000200200200000200200200000,
#GOGOSTART
100000200200100000200000100000200200100000200000,
100000200200100000200000100000200200100200200000,
100000200200100000200000100000200200100000200000,
100100200200100000200000000000100000200000000000,
100000200200100000200000100000200200100000200000,
100000200200100000200000100000200200100200200000,
100000100000200200200000100000200000100100200000,
100100100100200000200000100000200000100200200200,
100000200000100000200000100000200200100000200000,
100000200200200000200000100100200200100000200200,
100000200000100000200000100000200200100000200000,
100000200200200000200200100100200100200000100100,
200000000000300000000000300000000000300000000000,
400000000000200200200200100000100000200000100100,
100000100100200000200000100000000000200000000000,
100100100100200200200200100000100000200000100100,
100100100100200000100000300000000000400000000000,
#GOGOEND
#END
COURSE:Hard
LEVEL:5
BALLOON:12
SCOREINIT:1090
SCOREDIFF:300
#START
100000000000200000000000100000000000200000000000,
100000000000200000000000100000000000200000000000,
500000000000000000000000000000000000800000000000,
000000000000000000000000000000000000000000000000,
100000000000200000000000100000000000200000000000,
100000000000200000000000100000000000200000000000,
100000000000000000000000100000000000000000000000,
300000000000000000000000300000000000000000000000,
100000000000100000000000200000000000200000000000,
100000000000100000000000200000000000200000000000,
100000100000100000000000200000200000200000000000,
300000000000000000000000300000000000000000000000,
400000000000100000000000100000000000000000100000,
000000100000000000100000100000000000200000000000,
000000000000100000000000100000000000000000100000,
000000100000000000100000100000000000200000000000,
100000000000200000000000100000000000200000000000,
100000000000200000200000100000000000200000000000,
100000100000200000000000100000000000200000000000,
100000100000200000000000100000000000000000000000,
100000000000200000000000100000000000200000000000,
100000000000200000200000100000000000200000000000,
500000000000000000000000000000000000000000800000,
000000000000300000000000400000400000000000000000,
100000000000200000000000100000100000200000200000,
100000100000000000300000000000000000000000000000,
100000000000200000000000100000100000200000200000,
100000100000000000400000000000000000000000000000,
100000100000100000100000000000100000100000100000,
100000000000200000000000100000000000200000000000,
300000000000000000000000300000000000000000000000,
500000000000000000000000000000800000000000000000,
#GOGOSTART
100000200000100000000000100000200000100000000000,
100000200000100000000000100000200000100000000000,
700000000000000000000000000000000000000000800000,
000000000000000000000000000000000000000000000000,
100000200000100000000000100000200000100000000000,
100000200000100000000000100000200000100000000000,
100000100000100000000000200000200000200000000000,
100000100000100000000000200000200000200000000000,
100000200000100000000000100000200000100000100000,
000000200000000000200000200000000000200000000000,
100000200000100000000000100000200000100000100000,
000000200000000000200000200000000000200000000000,
000000000000300000000000300000000000400000000000,
300000000000100000000000100000000000000000100000,
000000100000000000100000100000000000200000000000,
000000000000100000000000100000000000000000100000,
000000100000000000100000100000000000400000000000,
#GOGOEND
#END
COURSE:Normal
LEVEL:2
BALLOON:10,7,5,5
SCOREINIT:1290
SCOREDIFF:500
#START
#SCROLL 0.8
100000000000000000000000200000000000000000000000,
100000000000000000000000200000000000000000000000,
500000000000000000000000000000000000800000000000,
000000000000000000000000000000000000000000000000,
100000000000000000000000200000000000000000000000,
100000000000000000000000200000000000000000000000,
700000000000000000000000000000000000000000000000,
000000000000000000000000000080000000000000000000,
100000000000100000000000100000000000000000000000,
100000000000100000000000100000000000000000000000,
100000000000000000000000200000000000000000000000,
300000000000000000000000300000000000000000000000,
300000000000000000000000200000000000000000000000,
100000000000000000000000300000000000000000000000,
100000000000000000000000200000000000000000000000,
100000000000000000000000400000000000000000000000,
100000000000000000000000100000000000000000000000,
100000000000000000000000100000000000000000000000,
100000000000200000000000100000000000000000000000,
100000000000200000000000100000000000000000000000,
100000000000000000000000100000000000000000000000,
100000000000000000000000100000000000000000000000,
500000000000000000000000000000000000800000000000,
000000000000000000000000000000000000000000000000,
100000000000100000000000100000000000000000000000,
300000000000000000000000000000000000000000000000,
100000000000100000000000100000000000000000000000,
400000000000000000000000000000000000000000000000,
100000000000000000000000200000000000000000000000,
100000000000000000000000200000000000000000000000,
300000000000000000000000300000000000000000000000,
600000000000000000000000000000800000000000000000,
#GOGOSTART
100000000000100000000000100000000000000000000000,
100000000000100000000000100000000000000000000000,
700000000000000000000000000000000000800000000000,
000000000000000000000000000000000000000000000000,
100000000000100000000000100000000000000000000000,
100000000000100000000000100000000000100000000000,
100000000000000000000000200000000000000000000000,
300000000000000000000000400000000000000000000000,
200000000000200000000000200000000000000000000000,
700000000000000000000000000000800000000000000000,
200000000000200000000000200000000000000000000000,
700000000000000000000000000000800000000000000000,
000000000000300000000000300000000000300000000000,
300000000000000000000000200000000000000000000000,
100000000000000000000000300000000000000000000000,
100000000000000000000000200000000000000000000000,
100000000000000000000000400000000000400000000000,
#GOGOEND
#END
COURSE:Easy
LEVEL:2
BALLOON:8,5,4,4
SCOREINIT:1290
SCOREDIFF:730
#START
#SCROLL 0.8
100000000000000000000000000000000000000000000000,
100000000000000000000000000000000000000000000000,
500000000000000000000000000000000000800000000000,
000000000000000000000000000000000000000000000000,
100000000000000000000000000000000000000000000000,
100000000000000000000000000000000000000000000000,
700000000000000000000000000000000000000000000000,
000000000000000000000000000080000000000000000000,
100000000000000000000000100000000000000000000000,
100000000000000000000000100000000000000000000000,
500000000000000000000000800000000000000000000000,
300000000000000000000000300000000000000000000000,
300000000000000000000000000000000000000000000000,
000000000000000000000000300000000000000000000000,
000000000000000000000000000000000000000000000000,
000000000000000000000000400000000000000000000000,
100000000000000000000000000000000000000000000000,
100000000000000000000000000000000000000000000000,
100000000000100000000000100000000000000000000000,
100000000000100000000000100000000000000000000000,
100000000000000000000000000000000000000000000000,
100000000000000000000000000000000000000000000000,
500000000000000000000000000000000000800000000000,
000000000000000000000000000000000000000000000000,
100000000000000000000000100000000000000000000000,
300000000000000000000000000000000000000000000000,
100000000000000000000000100000000000000000000000,
400000000000000000000000000000000000000000000000,
100000000000000000000000200000000000000000000000,
100000000000000000000000200000000000000000000000,
300000000000000000000000300000000000000000000000,
600000000000000000000000800000000000000000000000,
#GOGOSTART
100000000000000000000000100000000000000000000000,
100000000000100000000000100000000000000000000000,
700000000000000000000000000000000000800000000000,
000000000000000000000000000000000000000000000000,
100000000000000000000000100000000000000000000000,
100000000000100000000000100000000000000000000000,
100000000000000000000000100000000000000000000000,
300000000000000000000000300000000000000000000000,
200000000000200000000000200000000000000000000000,
700000000000000000000000000000800000000000000000,
200000000000200000000000200000000000000000000000,
700000000000000000000000000000800000000000000000,
000000000000000000000000000000000000000000000000,
300000000000000000000000000000000000000000000000,
000000000000000000000000300000000000300000000000,
000000000000000000000000000000000000000000000000,
000000000000000000000000400000000000400000000000,
#GOGOEND
#END