forked from ESE/ESE
292 lines
3.3 KiB
Plaintext
292 lines
3.3 KiB
Plaintext
//TJADB Project
|
|
TITLE:Do You Want to Build a Snowman?
|
|
TITLEJA:雪だるまつくろう
|
|
SUBTITLE:--Natsuki Inaba/Frozen
|
|
SUBTITLEJA:「アナと雪の女王」より
|
|
BPM:148
|
|
WAVE:Do You Want to Build a Snowman.ogg
|
|
OFFSET:-1.955
|
|
DEMOSTART:7.208
|
|
|
|
COURSE:Oni
|
|
LEVEL:7
|
|
BALLOON:27
|
|
SCOREINIT:1140
|
|
SCOREDIFF:300
|
|
|
|
|
|
#START
|
|
|
|
|
|
,
|
|
,
|
|
1000100110001000,
|
|
2,
|
|
1011221000002000,
|
|
,
|
|
2022111000002000,
|
|
,
|
|
1011221000000000,
|
|
2222100000000000,
|
|
1011221000100020,
|
|
,
|
|
1110221000000000,
|
|
40040000,
|
|
100111,
|
|
2000002210001000,
|
|
2,
|
|
1011221000001000,
|
|
4,
|
|
2022112000002000,
|
|
#BPMCHANGE 97
|
|
#SCROLL 1.52
|
|
4000000007000000,
|
|
#BPMCHANGE 153
|
|
#SCROLL 1
|
|
00000008,
|
|
,
|
|
1020201000112020,
|
|
1020201000112000,
|
|
1010202011102220,
|
|
1010202012102120,
|
|
1020201000112020,
|
|
1020201000112000,
|
|
1010202011102220,
|
|
1010202012102000,
|
|
#BARLINEOFF
|
|
#SCROLL 2
|
|
3000300330003000,
|
|
4,
|
|
|
|
#GOGOSTART
|
|
#BARLINEON
|
|
#SCROLL 1
|
|
1020120210221202,
|
|
1022102010221020,
|
|
1020120210221202,
|
|
1022102010221020,
|
|
22202220,
|
|
2222200022222000,
|
|
500000000000000008000000100000100100100000100000,
|
|
0200,
|
|
111222111222,
|
|
111222111212,
|
|
111222111222,
|
|
500000000000000000000000000000000000000000008000,
|
|
|
|
#GOGOEND
|
|
|
|
|
|
#END
|
|
|
|
|
|
COURSE:Hard
|
|
LEVEL:3
|
|
BALLOON:20,12,12
|
|
SCOREINIT:1200
|
|
SCOREDIFF:330
|
|
|
|
|
|
#START
|
|
|
|
|
|
,
|
|
,
|
|
1000100110001000,
|
|
2,
|
|
11210020,
|
|
,
|
|
22110020,
|
|
,
|
|
11210000,
|
|
22100000,
|
|
11210102,
|
|
,
|
|
11210000,
|
|
40040000,
|
|
100111,
|
|
20021010,
|
|
2,
|
|
11210010,
|
|
4,
|
|
22120020,
|
|
#BPMCHANGE 97
|
|
#SCROLL 1.5
|
|
4000000007000000,
|
|
#BPMCHANGE 153
|
|
#SCROLL 1
|
|
00000008,
|
|
,
|
|
12210122,
|
|
12210120,
|
|
11221120,
|
|
11221120,
|
|
12210122,
|
|
12210120,
|
|
9009,
|
|
8,
|
|
#BARLINEOFF
|
|
#SCROLL 2
|
|
3000300330003000,
|
|
4,//33
|
|
|
|
#BARLINEON
|
|
#SCROLL 1
|
|
#GOGOSTART
|
|
12101010,
|
|
12101010,
|
|
12101010,
|
|
12101010,
|
|
22202020,
|
|
22202020,
|
|
500000000000000008000000100000100100100000100000,
|
|
0200,
|
|
111100100100,
|
|
222200200200,
|
|
111100222200,
|
|
9009,//45
|
|
|
|
#GOGOEND
|
|
8,
|
|
,
|
|
,
|
|
,
|
|
,
|
|
,
|
|
#END
|
|
|
|
COURSE:Normal
|
|
LEVEL:1
|
|
BALLOON:15,10,10
|
|
|
|
#START
|
|
,
|
|
,
|
|
1111,
|
|
2,
|
|
10010020,
|
|
,
|
|
10010020,
|
|
,
|
|
3,
|
|
4,
|
|
500000000000000000000000000008000000000000200000,
|
|
,
|
|
30030000,
|
|
40040000,
|
|
1011,
|
|
500000000000000000000000000000000008000000000000,
|
|
2,
|
|
500000000000000000000000000000000008000000000000,
|
|
2,
|
|
600000000000000000000000000000000008000000000000,
|
|
#BPMCHANGE 97
|
|
#SCROLL 1.5
|
|
4000000007000000,
|
|
#BPMCHANGE 153
|
|
#SCROLL 1
|
|
00000008,
|
|
,
|
|
10010000,
|
|
20020000,
|
|
34,
|
|
34,
|
|
10010000,
|
|
20020000,
|
|
9009,
|
|
8,
|
|
#BARLINEOFF
|
|
3333,
|
|
4,//33
|
|
|
|
#BARLINEON
|
|
#GOGOSTART
|
|
1110,
|
|
1111,
|
|
1110,
|
|
1111,
|
|
2220,
|
|
2222,
|
|
500000000000000000000008000000000000000000000000,
|
|
0200,
|
|
1110,
|
|
2220,
|
|
3434,
|
|
9009,//45
|
|
|
|
#GOGOEND
|
|
8,
|
|
,
|
|
,
|
|
,
|
|
,
|
|
,
|
|
#END
|
|
|
|
COURSE:Easy
|
|
LEVEL:1
|
|
BALLOON:12,7,7
|
|
|
|
#START
|
|
,
|
|
,
|
|
,
|
|
,
|
|
500000000000000000000000000000000008000000000000,
|
|
,
|
|
500000000000000000000000000000000008000000000000,
|
|
,
|
|
3,
|
|
3,
|
|
500000000000000000000000000000000008000000000000,
|
|
,
|
|
3,
|
|
3,
|
|
11,
|
|
500000000000000000000000000000000000000008000000,
|
|
,
|
|
500000000000000000000000000000000008000000000000,
|
|
,
|
|
600000000000000000000000000000000000000000000008,
|
|
#BPMCHANGE 97
|
|
#SCROLL 1.14
|
|
0000000007000000,
|
|
#BPMCHANGE 153
|
|
#SCROLL 0.75
|
|
00000008,
|
|
,
|
|
1,
|
|
1,
|
|
3,
|
|
3,
|
|
1,
|
|
1,
|
|
9009,
|
|
8,
|
|
#BARLINEOFF
|
|
33,
|
|
3,//33
|
|
|
|
#BARLINEON
|
|
#GOGOSTART
|
|
11,
|
|
1,
|
|
11,
|
|
1,
|
|
3,
|
|
3,
|
|
500000000000000000000008000000000000000000000000,
|
|
,
|
|
11,
|
|
11,
|
|
1011,
|
|
9009,//45
|
|
|
|
#GOGOEND
|
|
8,
|
|
,
|
|
,
|
|
,
|
|
,
|
|
,
|
|
#END |