forked from ESE/ESE
460 lines
5.1 KiB
Plaintext
460 lines
5.1 KiB
Plaintext
//TJADB Project
|
||
TITLE:Don’t say “lazy”
|
||
TITLEJA:Don't say ”lazy”
|
||
SUBTITLE:--Sakuragaoka High School Light Music Club/K-ON!
|
||
BPM:181
|
||
WAVE:Don’t say “lazy”.ogg
|
||
OFFSET:-0.301
|
||
DEMOSTART:1.631
|
||
BGMOVIE:Don’t say “lazy”.mp4
|
||
|
||
COURSE:Oni
|
||
LEVEL:7
|
||
SCOREINIT:540
|
||
SCOREDIFF:150
|
||
|
||
|
||
#START
|
||
|
||
|
||
2000200022102210,
|
||
|
||
#GOGOSTART
|
||
3000200110102010,
|
||
1110222030004000,
|
||
1000200110102010,
|
||
1110222030004000,
|
||
1000200210102010,
|
||
100100100000200200200000500000000008000000100000,
|
||
|
||
#GOGOEND
|
||
2210201020002210,
|
||
21214040,
|
||
|
||
#GOGOSTART
|
||
3000200110102010,
|
||
1110222011102000,
|
||
1000200110102010,
|
||
1110222011102000,
|
||
1000200210102010,
|
||
100100100000200200200000500000000008000000100000,
|
||
|
||
#GOGOEND
|
||
2210201020002210,
|
||
21214040,
|
||
|
||
#GOGOSTART
|
||
1110102011101020,
|
||
1110102011102000,
|
||
1110102011101020,
|
||
1110102011102010,
|
||
|
||
#GOGOEND
|
||
11200111,
|
||
21112021,
|
||
11200111,
|
||
2010101020112000,
|
||
|
||
#GOGOSTART
|
||
1110102011101020,
|
||
1110102011102000,
|
||
1110102011101020,
|
||
1110102011102000,
|
||
|
||
#GOGOEND
|
||
1000101110102010,
|
||
0020001110102000,
|
||
1000101110102010,
|
||
0020001110102000,
|
||
1000201110102010,
|
||
1000200011102000,
|
||
500000000000000000000000000000000000000008000000,
|
||
0011200010222011,
|
||
1000101110102010,
|
||
0020001110102000,
|
||
1000101110102010,
|
||
0020001110102000,
|
||
1000201110102010,
|
||
1000200011102010,
|
||
2011201020112010,
|
||
2011201020111111,
|
||
#BARLINEOFF
|
||
#MEASURE 1/8
|
||
#BPMCHANGE 45.25
|
||
,
|
||
#GOGOSTART
|
||
#BARLINEON
|
||
#MEASURE 4/4
|
||
#BPMCHANGE 181
|
||
3000200110102010,
|
||
1110222030004000,
|
||
1000200110102010,
|
||
1110222030004000,
|
||
1000200210102010,
|
||
100100100000200200200000500000000008000000100000,
|
||
|
||
#GOGOEND
|
||
2210201020002210,
|
||
21214040,
|
||
|
||
#GOGOSTART
|
||
3000200110102010,
|
||
1110222011102000,
|
||
1000200110102010,
|
||
1110222011102000,
|
||
1000200210102010,
|
||
100100100000200200200000500000000008000000100000,
|
||
|
||
#GOGOEND
|
||
2210201020002210,
|
||
2011201122104000,
|
||
|
||
#GOGOSTART
|
||
1110102011101020,
|
||
1110102011102000,
|
||
1111102011111020,
|
||
1111102011112000,
|
||
|
||
#GOGOEND
|
||
33000000,
|
||
|
||
|
||
#END
|
||
|
||
|
||
COURSE:Hard
|
||
LEVEL:5
|
||
BALLOON:8
|
||
SCOREINIT:620
|
||
SCOREDIFF:188
|
||
|
||
|
||
#START
|
||
|
||
|
||
,
|
||
|
||
#GOGOSTART
|
||
30201120,
|
||
10201120,
|
||
10201120,
|
||
11201120,
|
||
10201120,
|
||
10201120,
|
||
#GOGOEND
|
||
33000330,
|
||
00033040,
|
||
|
||
#GOGOSTART
|
||
30201120,
|
||
10201120,
|
||
10201120,
|
||
11201120,
|
||
10201120,
|
||
10201120,
|
||
#GOGOEND
|
||
33000330,
|
||
00033040,
|
||
|
||
#GOGOSTART
|
||
11001100,
|
||
11001120,
|
||
11001100,
|
||
11001120,
|
||
#GOGOEND
|
||
|
||
11210120,
|
||
11211020,
|
||
11210120,
|
||
11211020,
|
||
#GOGOSTART
|
||
11001100,
|
||
11001120,
|
||
11001100,
|
||
11001120,
|
||
#GOGOEND
|
||
|
||
10210121,
|
||
01201120,
|
||
10210120,
|
||
11211210,
|
||
10210120,
|
||
10210120,
|
||
11212121,
|
||
01212000,
|
||
|
||
11210121,
|
||
01201120,
|
||
11210121,
|
||
01201120,
|
||
11210120,
|
||
11210120,
|
||
21212121,
|
||
7008,
|
||
|
||
#MEASURE 1/8
|
||
#BARLINEOFF
|
||
#BPMCHANGE 45.25
|
||
,
|
||
|
||
#BARLINEON
|
||
#GOGOSTART
|
||
#BPMCHANGE 181
|
||
#MEASURE 4/4
|
||
30201120,
|
||
10201120,
|
||
30201120,
|
||
11201120,
|
||
30201120,
|
||
10201120,
|
||
#GOGOEND
|
||
33000330,
|
||
00033040,
|
||
|
||
#GOGOSTART
|
||
30201120,
|
||
10201120,
|
||
30201120,
|
||
11201120,
|
||
30201120,
|
||
10201120,
|
||
#GOGOEND
|
||
33000330,
|
||
00033040,
|
||
|
||
#GOGOSTART
|
||
11001100,
|
||
11001120,
|
||
11201120,
|
||
11201120,
|
||
#GOGOEND
|
||
33000000,
|
||
|
||
|
||
#END
|
||
|
||
|
||
COURSE:Normal
|
||
LEVEL:4
|
||
BALLOON:6
|
||
SCOREINIT:690
|
||
SCOREDIFF:233
|
||
|
||
|
||
#START
|
||
|
||
|
||
,
|
||
|
||
#GOGOSTART
|
||
10001110,
|
||
3333,
|
||
10001110,
|
||
33,
|
||
10001110,
|
||
100000000000000000000000500000000000000008000000,
|
||
#GOGOEND
|
||
2222,
|
||
2220,
|
||
|
||
#GOGOSTART
|
||
10001110,
|
||
3333,
|
||
10001110,
|
||
33,
|
||
10001110,
|
||
100000000000000000000000500000000000000008000000,
|
||
#GOGOEND
|
||
2222,
|
||
2220,
|
||
|
||
#GOGOSTART
|
||
11001100,
|
||
11001000,
|
||
11001100,
|
||
500000000000000000000000000008000000000000000000,
|
||
#GOGOEND
|
||
|
||
10200110,
|
||
1110,
|
||
10200110,
|
||
1110,
|
||
#GOGOSTART
|
||
11001100,
|
||
11001000,
|
||
11001100,
|
||
500000000000000000000000000000000008000000000000,
|
||
#GOGOEND
|
||
|
||
10201100,
|
||
1210,
|
||
10201100,
|
||
1210,
|
||
10201100,
|
||
10201100,
|
||
1500,
|
||
000000000008000000000000000000000000000000000000,
|
||
|
||
10201100,
|
||
1210,
|
||
10201100,
|
||
1210,
|
||
10201100,
|
||
10201100,
|
||
3434,
|
||
7008,
|
||
|
||
#MEASURE 1/8
|
||
#BARLINEOFF
|
||
#BPMCHANGE 45.25
|
||
,
|
||
|
||
#BARLINEON
|
||
#GOGOSTART
|
||
#BPMCHANGE 181
|
||
#MEASURE 4/4
|
||
10001110,
|
||
3333,
|
||
10001110,
|
||
33,
|
||
10001110,
|
||
100000000000000000000000500000000000000008000000,
|
||
#GOGOEND
|
||
2222,
|
||
2220,
|
||
|
||
#GOGOSTART
|
||
10001110,
|
||
3333,
|
||
10001110,
|
||
33,
|
||
10001110,
|
||
100000000000000000000000500000000000000008000000,
|
||
#GOGOEND
|
||
2222,
|
||
2220,
|
||
|
||
#GOGOSTART
|
||
11001100,
|
||
11001000,
|
||
11001100,
|
||
11003030,
|
||
#GOGOEND
|
||
33000000,
|
||
|
||
|
||
#END
|
||
|
||
|
||
COURSE:Easy
|
||
LEVEL:3
|
||
BALLOON:6,6,4
|
||
SCOREINIT:650
|
||
SCOREDIFF:280
|
||
|
||
|
||
#START
|
||
|
||
|
||
,
|
||
|
||
#GOGOSTART
|
||
11,
|
||
3330,
|
||
11,
|
||
2220,
|
||
11,
|
||
1110,
|
||
#GOGOEND
|
||
3011,
|
||
1,
|
||
|
||
#GOGOSTART
|
||
11,
|
||
3330,
|
||
11,
|
||
2220,
|
||
11,
|
||
1110,
|
||
#GOGOEND
|
||
3011,
|
||
1,
|
||
|
||
#GOGOSTART
|
||
11,
|
||
1011,
|
||
11,
|
||
500000000000000000000000000008000000000000000000,
|
||
#GOGOEND
|
||
|
||
1001,
|
||
11,
|
||
1001,
|
||
11,
|
||
#GOGOSTART
|
||
11,
|
||
1011,
|
||
11,
|
||
500000000000000000000000000008000000000000000000,
|
||
#GOGOEND
|
||
|
||
1,
|
||
1100,
|
||
1,
|
||
1100,
|
||
11,
|
||
11,
|
||
1500,
|
||
000000000008000000000000000000000000000000000000,
|
||
|
||
1001,
|
||
1,
|
||
1001,
|
||
1,
|
||
11,
|
||
11,
|
||
1111,
|
||
7008,
|
||
|
||
#MEASURE 1/8
|
||
#BARLINEOFF
|
||
#BPMCHANGE 45.25
|
||
,
|
||
|
||
#BARLINEON
|
||
#GOGOSTART
|
||
#BPMCHANGE 181
|
||
#MEASURE 4/4
|
||
11,
|
||
3330,
|
||
11,
|
||
2220,
|
||
11,
|
||
3330,
|
||
#GOGOEND
|
||
3011,
|
||
7008,
|
||
|
||
#GOGOSTART
|
||
11,
|
||
3330,
|
||
11,
|
||
2220,
|
||
11,
|
||
3330,
|
||
#GOGOEND
|
||
3011,
|
||
7008,
|
||
|
||
#GOGOSTART
|
||
11,
|
||
1011,
|
||
11,
|
||
1011,
|
||
#GOGOEND
|
||
3,
|
||
|
||
|
||
#END
|
||
|