forked from ESE/ESE
353 lines
8.1 KiB
Plaintext
353 lines
8.1 KiB
Plaintext
//TJADB Project
|
|
TITLE:Donten
|
|
TITLEJA:曇天
|
|
SUBTITLE:--DOES/Gintama
|
|
SUBTITLEJA:「銀魂」主題曲
|
|
BPM:187
|
|
WAVE:Donten.ogg
|
|
OFFSET:-1.382
|
|
DEMOSTART:57.184
|
|
BGMOVIE:Donten.mp4
|
|
|
|
COURSE:Oni
|
|
LEVEL:6
|
|
BALLOON:17,25,25
|
|
SCOREINIT:780
|
|
SCOREDIFF:170
|
|
|
|
|
|
#START
|
|
|
|
|
|
300000000000000000000000000000000000000000000000,
|
|
300000000000000000000000000000000000000000000000,
|
|
100100100000000000000000000000000000000000000000,
|
|
100100100000000000000000000000000000000000000000,
|
|
100100100000000000000000100100100000000000000000,
|
|
100100100000100100100000100000100000100100100100,
|
|
100000000000200000000000100000100000200000100000,
|
|
100000100000200000000000100000100000200000000000,
|
|
100000000000200000000000100000100000200000100000,
|
|
100000100000200000000000100000100100100100100000,
|
|
300000000000000000000000000000000000000000000000,
|
|
000000000000000000000000000000000000400000000000,
|
|
100000000000200000000000100000100000200000200000,
|
|
100000000000200000000000100000100000200000000000,
|
|
100000000000200000000000100000100000200000200000,
|
|
100000000000200000000000100000100000200000000000,
|
|
200000000000100000000000200000200000100000100000,
|
|
200000000000100000000000200000200000100000000000,
|
|
200000000000100000000000200000200000100000100000,
|
|
200000200000100000100000200000200000100100100100,
|
|
100000100000200000000000100000100000200000000000,
|
|
100000100000200000000000100000100000200000100000,
|
|
200000200000100000000000200000200000100000000000,
|
|
200000200000100000000000200000200000100000200000,
|
|
100000100000000000100000100000100000000000100000,
|
|
100000100000000000100000100000100000000000100000,
|
|
100000100000000000100000100000100000000000100000,
|
|
100000100000000000100000100000000000000000000000,
|
|
100000000000200000000000100000100000200000200000,
|
|
100000000000200000000000100000100000200000000000,
|
|
100000000000200000000000100000100000200000200000,
|
|
100000000000200000000000100000100000200000000000,
|
|
200000000000100000000000200000200000100000100000,
|
|
200000000000100000000000200000200000100000000000,
|
|
200000000000100000000000200000200000100000100000,
|
|
200000200000100000100000200000200000100100100100,
|
|
100000100000200000000000100000100000200000000000,
|
|
100000100000200000000000100000100000200000100000,
|
|
200000200000100000000000200000200000100000000000,
|
|
200000200000100000000000200000200000100000200000,
|
|
100000100000200000000000100000100000200000000000,
|
|
100000100000200000000000100000100000200000100000,
|
|
700000000000000000000000000000000000000000000000,
|
|
800000000000000000000000300000000000000000000000,
|
|
|
|
#GOGOSTART
|
|
100000100000200000000000100000100000200000100100,
|
|
100000100000200000200000100000100000200000000000,
|
|
100000100000200000000000100000100000200000100100,
|
|
100000100000200000200000100000000000200000000000,
|
|
100000100000200000000000100000100000200000100100,
|
|
100000100000200000200000100000000000200000000000,
|
|
100000100000200000000000100000100000200000000000,
|
|
300000000000400000000000400000000000400000000000,
|
|
100000100000200000000000100000100000200000100100,
|
|
100000100000200000200000100000000000200000000000,
|
|
100000100000200000000000100000100000200000100100,
|
|
100000100000200000200000100000000000200000000000,
|
|
100000100000200000000000100000100000200000100100,
|
|
100000100000200000200000100000000000200000000000,
|
|
100000100000200000200000100000200200200000000000,
|
|
7,
|
|
08,
|
|
100000100000200000100100100000100000200000100000,
|
|
100000100000200000100100100000100000200000000000,
|
|
7,
|
|
08,
|
|
100000100000200000100100100000100000200000100000,
|
|
500000000000000000000000000000000000000000000008,
|
|
|
|
#GOGOEND
|
|
|
|
|
|
#END
|
|
|
|
|
|
COURSE:Hard
|
|
LEVEL:5
|
|
BALLOON:14,20,20
|
|
SCOREINIT:850
|
|
SCOREDIFF:220
|
|
|
|
|
|
#START
|
|
|
|
|
|
300000000000000000000000000000000000000000000000,
|
|
300000000000000000000000000000000000000000000000,
|
|
300000000000000000000000000000000000000000000000,
|
|
300000000000000000000000000000000000000000000000,
|
|
300000000000000000000000300000000000000000000000,
|
|
100000100000100000100000100000100000100000100000,
|
|
100000000000200000000000100000100000200000000000,
|
|
100000000000200000000000100000100000200000000000,
|
|
100000000000200000000000100000100000200000000000,
|
|
100000000000200000000000100000100000100000000000,
|
|
300000000000000000000000000000000000000000000000,
|
|
000000000000000000000000000000000000000000000000,
|
|
100000000000200000000000100000100000200000000000,
|
|
100000000000000000000000100000100000200000000000,
|
|
100000000000200000000000100000100000200000000000,
|
|
100000000000000000000000200000000000200000000000,
|
|
100000000000200000000000100000100000200000000000,
|
|
100000000000000000000000200000200000100000000000,
|
|
100000000000100000000000100000100000200000000000,
|
|
100000000000100000000000100000100000100000100000,
|
|
100000000000200000000000100000100000200000100000,
|
|
100000000000200000000000100000100000200000000000,
|
|
100000000000200000000000100000100000200000100000,
|
|
100000000000200000000000100000000000200000000000,
|
|
500000000000000000000000000000000000000000000000,
|
|
000000000000000000000800000000000000000000000000,
|
|
000000000000000000000000000000000000000000000000,
|
|
000000000000000000000000000000000000000000000000,
|
|
100000000000200000000000100000100000200000000000,
|
|
100000000000000000000000100000100000200000000000,
|
|
100000000000200000000000100000100000200000000000,
|
|
100000000000000000000000200000000000200000000000,
|
|
100000000000200000000000100000100000200000000000,
|
|
100000000000000000000000200000200000100000000000,
|
|
100000000000100000000000100000100000200000000000,
|
|
100000000000100000000000100000100000100000100000,
|
|
100000000000200000000000100000100000200000100000,
|
|
100000000000200000000000100000100000200000000000,
|
|
100000000000200000000000100000100000200000100000,
|
|
100000000000200000000000100000000000200000000000,
|
|
500000000000000000000000000000000000000000000000,
|
|
000000000000000000000800000000000000000000000000,
|
|
700000000000000000000000000000000000000000800000,
|
|
000000000000000000000000300000000000000000000000,
|
|
#GOGOSTART
|
|
100000000000200000000000100000100000200000100000,
|
|
100000000000100000000000100000000000000000000000,
|
|
100000000000200000000000100000100000200000100000,
|
|
100000100000200000000000100000000000000000000000,
|
|
100000000000200000000000100000100000200000100000,
|
|
100000000000100000000000100000000000000000000000,
|
|
100000000000200000000000100000100000200000000000,
|
|
300000000000400000000000400000000000000000000000,
|
|
100000000000200000000000100000100000200000100000,
|
|
100000000000100000000000100000000000000000000000,
|
|
100000000000200000000000100000100000200000100000,
|
|
100000100000200000000000100000000000100000000000,
|
|
100000000000000000000000100000100000200000000000,
|
|
100000100000200000000000100000100000200000000000,
|
|
100000100000200000000000100000100000100000100000,
|
|
700000000000000000000000000000000000000000000000,
|
|
000000000000000000000000800000000000000000000000,
|
|
100000100000200000000000100000100000200000000000,
|
|
200000200000100000000000200000200000100000000000,
|
|
700000000000000000000000000000000000000000000000,
|
|
000000000000000000000000800000000000000000000000,
|
|
100000100000200000000000100000100000200000000000,
|
|
500000000000000000000000000000000000000000000800,
|
|
#GOGOEND
|
|
|
|
|
|
#END
|
|
|
|
|
|
COURSE:Normal
|
|
LEVEL:4
|
|
BALLOON:11,9,12,11
|
|
SCOREINIT:1190
|
|
SCOREDIFF:330
|
|
|
|
|
|
#START
|
|
|
|
|
|
3,
|
|
,
|
|
3,
|
|
3,
|
|
33,
|
|
10101110,
|
|
10001110,
|
|
11,
|
|
10001110,
|
|
11,
|
|
3,
|
|
,
|
|
10001110,
|
|
11,
|
|
10001110,
|
|
1,
|
|
10001110,
|
|
12,
|
|
10001110,
|
|
12,
|
|
1,
|
|
11101010,
|
|
1,
|
|
11101010,
|
|
7,
|
|
0008,
|
|
,
|
|
,
|
|
10001110,
|
|
11,
|
|
10001110,
|
|
1,
|
|
10001110,
|
|
12,
|
|
10001110,
|
|
12,
|
|
1,
|
|
11101010,
|
|
1,
|
|
11101010,
|
|
1,
|
|
500000000000000000000000000000000008000000000000,
|
|
7,
|
|
83,
|
|
|
|
#GOGOSTART
|
|
11,
|
|
11101000,
|
|
10101110,
|
|
12,
|
|
11,
|
|
11101000,
|
|
1111,
|
|
3,
|
|
11,
|
|
11101000,
|
|
10101110,
|
|
1110,
|
|
1,
|
|
11,
|
|
10001110,
|
|
7,
|
|
00000800,
|
|
1110,
|
|
2220,
|
|
7,
|
|
00000800,
|
|
1110,
|
|
500000000000000000000000000000000000000000000008,
|
|
|
|
#GOGOEND
|
|
|
|
|
|
#END
|
|
|
|
|
|
COURSE:Easy
|
|
LEVEL:3
|
|
BALLOON:6,12,12
|
|
SCOREINIT:1060
|
|
SCOREDIFF:430
|
|
|
|
|
|
#START
|
|
|
|
|
|
3,
|
|
,
|
|
3,
|
|
3,
|
|
11,
|
|
1110,
|
|
1,
|
|
11,
|
|
1,
|
|
11,
|
|
1,
|
|
,
|
|
11,
|
|
1,
|
|
11,
|
|
1,
|
|
11,
|
|
1,
|
|
11,
|
|
11,
|
|
1,
|
|
1011,
|
|
1,
|
|
1011,
|
|
5,
|
|
000000000000000000000000000000000008000000000000,
|
|
,
|
|
,
|
|
11,
|
|
1,
|
|
11,
|
|
1,
|
|
11,
|
|
1,
|
|
11,
|
|
11,
|
|
1,
|
|
1011,
|
|
1,
|
|
1011,
|
|
1,
|
|
1,
|
|
7,
|
|
83,
|
|
|
|
#GOGOSTART
|
|
11,
|
|
1110,
|
|
12,
|
|
1,
|
|
11,
|
|
1110,
|
|
12,
|
|
3,
|
|
11,
|
|
1110,
|
|
12,
|
|
1110,
|
|
1,
|
|
12,
|
|
1011,
|
|
9,
|
|
,
|
|
,
|
|
8,
|
|
7,
|
|
,
|
|
08,
|
|
500000000000000000000000000000000000000000000008,
|
|
|
|
#GOGOEND
|
|
|
|
|
|
#END
|
|
|