Files
ESE-ja-fix/02 Anime/GO/GO -Cover Version-.tja
2023-06-15 19:15:39 -05:00

259 lines
3.2 KiB
Plaintext

//TJADB Project
TITLE:GO -Cover Version-
TITLEJA:GO -Cover Version-
SUBTITLE:--BUMP OF CHICKEN/Granblue Fantasy
SUBTITLEJA:「NARUTO」より
BPM:130
WAVE:GO -Cover Version-.ogg
OFFSET:-7.420
DEMOSTART:55.179
BGMOVIE:GO.mp4
COURSE:Oni
LEVEL:7
SCOREINIT:800
SCOREDIFF:225
#START
2202202200202020,
2202202200202020,
1020102010001011,
1011202000001000,
1022102011201011,
1011202000000010,
1020102010201022,
1011202000002010,
1022102011200022,
1122102000000010,
1020102010201011,
1011202000000010,
1022102011200011,
1011202000000010,
1022102011201022,
1111202000000010,
1011202011201022,
1120112000000010,
1000201010112010,
200000100100200000100000500000000008000000100000,
1000201010221011,
200000200200200000200000500000000008000000100000,
1011201020112022,
100000100100200000100000500000000008000000100100,
2020201122102030,
30303301,
#GOGOSTART
1011201010221020,
1010221110004010,
1011201010221020,
1022112210004010,
1011101011101011,
1030404000002011,
1011201111200022,
1011202211200010,
1011201010221020,
1010221110004010,
1011201010221020,
1022112210004010,
1011101011101030,
33440001,
1011202211201022,
1122100020000000,
#GOGOEND
2202202200202020,
#END
COURSE:Hard
LEVEL:5
SCOREINIT:860
SCOREDIFF:265
#START
#BARLINEOFF
,
#BARLINEON
00000001,
12121010,
12120010,
12121010,
11220001,
12121010,
11220011,
01120202,
21120001,
1020102000200011,
11120001,
1020102000200011,
11220001,
1020001010200011,
1010202000000011,
11220211,
0011102000000010,
10211020,
1011101020000010,
10221020,
2022202020000010,
10211020,
1011101020000010,
12211013,
30303301,
#GOGOSTART
12210120,
1010201110004010,
12210120,
1010202220004010,
10112033,
33440021,
1000201010200011,
1010101110200010,
12210120,
1010201110004010,
12210120,
1010202220004010,
10112013,
33440001,
1020201010001011,
1011100020000000,
#GOGOEND
#END
COURSE:Normal
LEVEL:4
SCOREINIT:1140
SCOREDIFF:485
#START
#BARLINEOFF
,
,
#BARLINEON
1110,
10110000,
10111010,
10220000,
1110,
10110000,
20220205,
000000000000000000000008000000000000000000000000,
10110100,
10110000,
10110100,
10220000,
10111010,
11110000,
20220250,
000000000000000000000008000000000000000000000000,
1111,
10111000,
1111,
10222000,
1111,
10111005,
000000000000000000000000000000000008000000000000,
30303300,
#GOGOSTART
10111010,
11101000,
10111010,
11101000,
20222020,
3300,
10111105,
000000000000000000000000000000000008000000000000,
10111010,
11102000,
10111010,
11102000,
20222020,
3300,
10111015,
000000000000000000000000000000000008000000000000,
#GOGOEND
#END
COURSE:Easy
LEVEL:2
BALLOON:13
SCOREINIT:1210
SCOREDIFF:908
#START
#BARLINEOFF
,
,
#BARLINEON
11,
1100,
11,
1100,
11,
2200,
10001005,
000000000000000000000008000000000000000000000000,
11,
1100,
11,
1100,
11,
2200,
1015,
000000000000000000000008000000000000000000000000,
11,
1110,
11,
2220,
11,
10101007,
,
0008,
#GOGOSTART
1110,
11,
1110,
12,
1110,
3300,
20002005,
000000000000000000000008000000000000000000000000,
1110,
11,
1110,
12,
1110,
3300,
20002005,
000000000000000000000000000000000008000000000000,
#GOGOEND
#END