forked from ESE/ESE
366 lines
13 KiB
Plaintext
366 lines
13 KiB
Plaintext
//TJADB Project
|
|
TITLE:Glorious Mind
|
|
TITLEJA:グロリアス マインド
|
|
SUBTITLE:--ZARD/Detective Conan
|
|
SUBTITLEJA:アニメ「名探偵コナン」より
|
|
BPM:123
|
|
WAVE:Glorious Mind.ogg
|
|
OFFSET:-2.250
|
|
DEMOSTART:67.849
|
|
|
|
COURSE:Oni
|
|
LEVEL:5
|
|
SCOREINIT:690
|
|
SCOREDIFF:180
|
|
|
|
|
|
#START
|
|
|
|
|
|
000000100000200000100100100000200000200000100000,
|
|
000000100000200000100100100000100000200000000000,
|
|
100000000000200000100100100000200000200000000000,
|
|
100000000000200000100100100000100000200000000000,
|
|
100000000000200000100100100000100000200000000000,
|
|
100000000000200000100100100000100000200000000000,
|
|
100000000000200000100100100000100000100000300000,
|
|
000000300000300000300000000000100000200000200000,
|
|
|
|
#GOGOSTART
|
|
000000100000200000100100200000100000200000200000,
|
|
000000100000200000100100200000000000100000000000,
|
|
100000100000200000100100100000100000200000100000,
|
|
100000200000200000100000000000100000200000000000,
|
|
100000100000200000100100100000100000200000100000,
|
|
000000200000200000100000000000100000200000100000,
|
|
000000100000200000100100100000100000200000100000,
|
|
000000100100100000100100100000100000100000100000,
|
|
000000000000500000000000000000000000000000000000,
|
|
000000000000000000000008000000000000000000000000,
|
|
|
|
#GOGOEND
|
|
100000000000200000000100000100100000100000100000,
|
|
100000000000200000000100000100100000200000100000,
|
|
100000000000200000000100000100100000100000000000,
|
|
100000000000200000000100000100100000200000100000,
|
|
100000100000200000000000100000100000200000000000,
|
|
100000100000200000100000000000100000200000000000,
|
|
100000100000100200000100100000100000200000000000,
|
|
100000100000100200000000100000000000000000000000,
|
|
100000000000200000200000100000100000200000000000,
|
|
100000000000200000000000000000100000200000000000,
|
|
100000000000200000200000100000100000200000000000,
|
|
100000000000200000000000000000100000200000000000,
|
|
100000000000200000200000000000100000200000000000,
|
|
100000000000200000200000000000100000200000100100,
|
|
100000000000000000000000100000200000200000100000,
|
|
000000300000300000300000000000100000200000100000,
|
|
|
|
#GOGOSTART
|
|
000000100000200000100100200000100000200000200000,
|
|
000000100000200000100100200000000000100000000000,
|
|
100000100000200000100100100000100000200000100000,
|
|
100000200000200000100000000000100000200000000000,
|
|
100000100000200000100100100000100000200000100000,
|
|
100000200000200000100000000000200000200000100000,
|
|
000000100000200000100000000000100000200000100000,
|
|
000000300000000000300000000000100000200000100000,
|
|
000000100000200000100100200000100000200000200000,
|
|
000000100000200000100100200000000000100000000000,
|
|
100000100000200000100100100000100000200000100000,
|
|
100000200000200000100000000000100000200000000000,
|
|
100000100000200000100100100000100000200000100000,
|
|
000000200000200000100000000000100000200000100000,
|
|
000000100000200000100100100000100000200000100000,
|
|
000000100100100000100100100000100000100000100000,
|
|
000000000000500000000000000000000000000000000000,
|
|
000000000000000000000008000000000000000000000000,
|
|
|
|
#GOGOEND
|
|
#BPMCHANGE 122
|
|
#SCROLL 1.00819672131
|
|
100000100000200000200000000000200000000000100000,
|
|
100000100000200000200000000000000000000000000000,
|
|
#BPMCHANGE 120
|
|
#SCROLL 1.025
|
|
100000100000200000200000
|
|
#BPMCHANGE 115.5
|
|
#SCROLL 1.06493506494
|
|
100000100000200000200000,
|
|
#BPMCHANGE 105
|
|
#SCROLL 1.17142857143
|
|
100000000000000000000000
|
|
#BPMCHANGE 73.2
|
|
#SCROLL 1.68032786885
|
|
100000000000000000000000,
|
|
1,
|
|
|
|
|
|
#END
|
|
|
|
|
|
COURSE:Hard
|
|
LEVEL:4
|
|
SCOREINIT:820
|
|
SCOREDIFF:200
|
|
|
|
|
|
#START
|
|
|
|
|
|
000000100000200000000000000000100000200000200000,
|
|
000000100000200000000000100000100000200000000000,
|
|
100000000000200000000000100000100000200000000000,
|
|
100000000000200000000000100000000000200000000000,
|
|
100000000000200000000000100000100000200000000000,
|
|
100000000000200000000000100000100000200000000000,
|
|
300000000000000000000000300000000000000000300000,
|
|
000000000000000000000000000000100000100000100000,
|
|
#GOGOSTART
|
|
000000100000200000100000000000100000200000200000,
|
|
000000100000200000100000000000000000200000000000,
|
|
100000000000200000000000100000100000200000000000,
|
|
100000000000200000200000000000000000000000000000,
|
|
100000000000200000000000100000100000200000000000,
|
|
100000200000200000100000000000100000200000000000,
|
|
100000000000200000100000100000000000200000100000,
|
|
000000000000100000000000100000000000100000100000,
|
|
000000000000500000000000000000000000000000000000,
|
|
000000000000000000000800000000000000000000000000,
|
|
#GOGOEND
|
|
100000000000200000000100000100100000100000000000,
|
|
100000000000200000000100000100100000100000000000,
|
|
100000000000200000000100000100100000100000000000,
|
|
100000000000200000000100000100100000100000000000,
|
|
100000000000200000100000100000000000200000100000,
|
|
100000000000200000100000100000000000200000000000,
|
|
100000000000200000000100000100100000100000000000,
|
|
100000000000000000000000000000000000100000100000,
|
|
100000000000200000100000000000100000200000100000,
|
|
000000100000200000100000000000100000200000000000,
|
|
100000000000200000100000000000100000200000100000,
|
|
000000100000200000100000000000100000200000000000,
|
|
100000000000200000100000000000100000200000100000,
|
|
000000100000200000100000000000100000100000000000,
|
|
100000000000000000000000100000000000100000100000,
|
|
000000000000000000000000000000100000100000100000,
|
|
#GOGOSTART
|
|
000000100000200000100000000000100000200000200000,
|
|
000000100000200000100000000000000000200000000000,
|
|
100000000000200000000000100000100000200000000000,
|
|
100000000000200000200000000000000000000000000000,
|
|
100000000000200000000000100000100000200000000000,
|
|
100000000000200000200000000000100000100000100000,
|
|
000000100000200000100000000000000000000000300000,
|
|
000000300000000000300000000000100000100000100000,
|
|
000000100000200000100000000000100000200000200000,
|
|
000000100000200000100000000000000000200000000000,
|
|
100000000000200000000000100000100000200000000000,
|
|
100000000000200000200000000000000000000000000000,
|
|
100000000000200000000000100000100000200000000000,
|
|
100000200000200000100000000000100000200000000000,
|
|
100000000000200000100000100000000000200000100000,
|
|
000000000000100000000000100000000000100000100000,
|
|
000000000000500000000000000000000000000000000000,
|
|
000000000000000000000800000000000000000000000000,
|
|
|
|
#GOGOEND
|
|
#BPMCHANGE 122
|
|
#SCROLL 1.00819672131
|
|
100000100000200000200000000000000000000000000000,
|
|
100000100000200000200000000000000000000000000000,
|
|
#BPMCHANGE 120
|
|
#SCROLL 1.025
|
|
100000100000200000000000
|
|
#BPMCHANGE 115.5
|
|
#SCROLL 1.06493506494
|
|
100000100000200000000000,
|
|
#BPMCHANGE 105
|
|
#SCROLL 1.17142857143
|
|
100000100000200000000000
|
|
#BPMCHANGE 73.2
|
|
#SCROLL 1.68032786885
|
|
100000000000000000000000,
|
|
1,
|
|
|
|
|
|
#END
|
|
|
|
|
|
COURSE:Normal
|
|
LEVEL:4
|
|
BALLOON:16
|
|
SCOREINIT:1150
|
|
SCOREDIFF:370
|
|
|
|
|
|
#START
|
|
|
|
|
|
000000000000000000000000000000000000000000000000,
|
|
000000000000000000000000000000000000000000000000,
|
|
100000000000000000000000000000100000100000000000,
|
|
100000000000000000000000000000000000000000000000,
|
|
100000000000000000000000200000000000000000000000,
|
|
100000000000000000000000200000000000000000000000,
|
|
100000000000000000000000100000000000000000000000,
|
|
100000000000000000000000000000000000000000300000,
|
|
#GOGOSTART
|
|
000000000000100000100000000000000000000000300000,
|
|
000000000000100000100000000000000000000000000000,
|
|
100000000000200000000000100000000000200000000000,
|
|
100000000000100000100000000000000000000000000000,
|
|
100000000000200000000000100000000000200000000000,
|
|
100000000000100000100000000000000000000000000000,
|
|
100000000000000000000000100000000000000000100000,
|
|
000000000000000000000000100000000000100000000000,
|
|
500000000000000000000000000000000000000000000000,
|
|
000000000000000000800000000000000000000000000000,
|
|
#GOGOEND
|
|
100000000000200000000000000000000000100000000000,
|
|
100000000000200000000000100000000000200000000000,
|
|
100000000000000000000000000000000000100000000000,
|
|
100000000000200000000000100000000000200000000000,
|
|
100000000000000000000000200000000000000000000000,
|
|
100000000000000000000000200000000000000000000000,
|
|
100000000000200000000000100000000000200000000000,
|
|
100000000000000000000000000000000000000000000000,
|
|
100000000000000000000000000000000000200000000000,
|
|
100000000000000000200000200000000000000000000000,
|
|
100000000000000000000000000000000000200000000000,
|
|
100000000000000000200000200000000000000000000000,
|
|
100000000000000000000000200000000000100000000000,
|
|
100000000000000000000000200000000000100000000000,
|
|
100000000000000000000000100000000000100000100000,
|
|
000000000000000000000000000000000000000000300000,
|
|
#GOGOSTART
|
|
000000000000100000100000000000000000000000300000,
|
|
000000000000100000100000000000000000000000000000,
|
|
100000000000200000000000100000000000200000000000,
|
|
100000000000100000100000000000000000000000000000,
|
|
100000000000200000000000100000000000200000000000,
|
|
100000000000100000100000000000000000000000000000,
|
|
100000000000200000000000100000000000000000100000,
|
|
000000000000000000000000000000000000000000300000,
|
|
000000000000100000100000000000000000000000300000,
|
|
000000000000100000100000000000000000000000000000,
|
|
100000000000200000000000100000000000200000000000,
|
|
100000000000100000100000000000000000000000000000,
|
|
100000000000200000000000100000000000200000000000,
|
|
100000000000100000100000000000000000000000000000,
|
|
100000000000000000000000100000000000000000100000,
|
|
000000000000000000000000100000000000100000000000,
|
|
700000000000000000000000000000000000000000000000,
|
|
000000000000000000000000000000000000800000000000,
|
|
|
|
#GOGOEND
|
|
#BPMCHANGE 122
|
|
#SCROLL 1.00819672131
|
|
000000000000000000000000000000000000000000000000,
|
|
100000000000000000000000200000000000000000000000,
|
|
#BPMCHANGE 122
|
|
#SCROLL 1.00819672131
|
|
100000000000000000000000
|
|
#BPMCHANGE 115.5
|
|
#SCROLL 1.06493506494
|
|
100000000000000000000000,
|
|
#BPMCHANGE 105
|
|
#SCROLL 1.17142857143
|
|
100000000000000000000000
|
|
#BPMCHANGE 73.2
|
|
#SCROLL 1.68032786885
|
|
100000000000000000000000,
|
|
1,
|
|
|
|
|
|
#END
|
|
|
|
|
|
COURSE:Easy
|
|
LEVEL:2
|
|
BALLOON:16
|
|
SCOREINIT:900
|
|
SCOREDIFF:350
|
|
|
|
|
|
#START
|
|
|
|
|
|
000000000000000000000000000000000000000000000000,
|
|
000000000000000000000000000000000000000000000000,
|
|
100000000000100000000000100000000000000000000000,
|
|
100000000000000000000000000000000000000000000000,
|
|
100000000000000000000000200000000000000000000000,
|
|
100000000000000000000000200000000000000000000000,
|
|
100000000000000000000000100000000000000000000000,
|
|
100000000000000000000000000000000000000000300000,
|
|
#GOGOSTART
|
|
000000000000000000300000000000000000000000300000,
|
|
000000000000000000300000000000000000000000000000,
|
|
100000000000000000000000100000000000000000000000,
|
|
100000000000100000000000000000000000000000000000,
|
|
100000000000000000000000100000000000000000000000,
|
|
100000000000100000000000000000000000000000000000,
|
|
100000000000000000000000100000000000000000100000,
|
|
000000000000000000000000100000000000100000000000,
|
|
500000000000000000000000000000000000000000000000,
|
|
000000000000000000800000000000000000000000000000,
|
|
#GOGOEND
|
|
100000000000000000000000000000000000100000000000,
|
|
100000000000000000000000100000000000000000000000,
|
|
100000000000000000000000000000000000100000000000,
|
|
100000000000000000000000100000000000000000000000,
|
|
100000000000000000000000200000000000000000000000,
|
|
100000000000000000000000200000000000000000000000,
|
|
100000000000000000000000200000000000000000000000,
|
|
100000000000000000000000000000000000000000000000,
|
|
100000000000000000000000000000000000100000000000,
|
|
100000000000000000000000200000000000000000000000,
|
|
100000000000000000000000000000000000100000000000,
|
|
100000000000000000000000200000000000000000000000,
|
|
100000000000000000000000100000000000100000000000,
|
|
100000000000000000000000100000000000100000000000,
|
|
100000000000000000000000000000000000000000000000,
|
|
100000000000000000000000000000000000000000300000,
|
|
#GOGOSTART
|
|
000000000000000000300000000000000000000000300000,
|
|
000000000000000000300000000000000000000000000000,
|
|
100000000000000000000000100000000000000000000000,
|
|
100000000000100000000000000000000000000000000000,
|
|
100000000000000000000000100000000000000000000000,
|
|
100000000000100000000000000000000000000000000000,
|
|
100000000000000000000000100000000000500000000000,
|
|
000000000000000000800000000000000000000000300000,
|
|
000000000000000000300000000000000000000000300000,
|
|
000000000000000000300000000000000000000000000000,
|
|
100000000000000000000000100000000000000000000000,
|
|
100000000000100000000000000000000000000000000000,
|
|
100000000000000000000000100000000000000000000000,
|
|
100000000000100000000000000000000000000000000000,
|
|
100000000000000000000000100000000000000000100000,
|
|
000000000000000000000000100000000000100000000000,
|
|
700000000000000000000000000000000000000000000000,
|
|
000000000000000000000000000000000000800000000000,
|
|
|
|
#GOGOEND
|
|
#BPMCHANGE 122
|
|
#SCROLL 1.00819672131
|
|
000000000000000000000000000000000000000000000000,
|
|
200000000000000000000000000000000000000000000000,
|
|
#BPMCHANGE 120
|
|
#SCROLL 1.025
|
|
200000000000000000000000
|
|
#BPMCHANGE 115.5
|
|
#SCROLL 1.06493506494
|
|
200000000000000000000000,
|
|
#BPMCHANGE 105
|
|
#SCROLL 1.17142857143
|
|
200000000000000000000000
|
|
#BPMCHANGE 73.2
|
|
#SCROLL 1.68032786885
|
|
200000000000000000000000,
|
|
|
|
|
|
#END
|
|
|