Files
2023-06-15 19:05:10 -05:00

377 lines
3.5 KiB
Plaintext
Raw Permalink Blame History

This file contains ambiguous Unicode characters
This file contains Unicode characters that might be confused with other characters. If you think that this is intentional, you can safely ignore this warning. Use the Escape button to reveal them.
//TJADB Project
TITLE:Howling
TITLEJA:Howling
SUBTITLE:--FLOW × GRANRODEO/The Seven Deadly Sins
SUBTITLEJA:「七つの大罪 戒めの復活」より
BPM:100
WAVE:Howling.ogg
OFFSET:-2.584
DEMOSTART:54.777
COURSE:Oni
LEVEL:7
BALLOON:30
SCOREINIT:650
SCOREDIFF:173
#START
11201120,
11201120,
11201120,
11201120,
#BPMCHANGE 200
33020202,
0022201020201000,
33040404,
0022201020112000,
10111111,
11111120,
10111111,
11111120,
10111111,
11111120,
10201120,
1022201020202020,
12021202,
1020002010112000,
12021202,
1020002011102000,
12021202,
1020002010112000,
10201120,
1022201020202020,
#BPMCHANGE 100
11401144,
11401144,
#BPMCHANGE 200
1010202011102020,
1010202010222020,
1010202011102020,
11221222,
#BPMCHANGE 100
11401144,
11441144,
#BPMCHANGE 200
1010202011102020,
1010202010222020,
1010101011101111,
1010200020202222,
#GOGOSTART
1000200011102010,
0010200022202010,
1000200011102010,
0010200020202222,
1000200011102010,
0010200011102000,
10210120,
1000000040001111,
1010200011102000,
1010200011102000,
3022203022203000,
3022202020202222,
1000200011102010,
0010200022102020,
1000200011102010,
0010200022102020,
1000200011102010,
0010200011102000,
10210120,
1000000040001111,
10201120,
1110200011102000,
10201120,
1110200011102000,
3022203022203000,
3022202020202222,
17,
,
000000000000000000000000000000000000000000000008,
#GOGOEND
#END
COURSE:Hard
LEVEL:5
BALLOON:11,19
SCOREINIT:700
SCOREDIFF:205
#START
30301120,
30301120,
30301120,
30301120,
#BPMCHANGE 200
33000000,
,
33070000,
0008,
10111110,
10111120,
10111110,
10111120,
10111110,
10111120,
10201120,
12,
12101210,
12101020,
12101210,
12101020,
12101210,
12101020,
10201120,
12,
#BPMCHANGE 100
11401140,
11401140,
#BPMCHANGE 200
1210,
1210,
1210,
1210,
#BPMCHANGE 100
11401140,
11401140,
#BPMCHANGE 200
1211,
1211,
11111111,
10002222,
#GOGOSTART
10101023,
03002222,
10101023,
03002222,
10101023,
03000030,
30030030,
34,
11201020,
11201020,
30030030,
30002222,
10201023,
03002222,
10201023,
03002222,
10201023,
03000030,
30030030,
34,
10201120,
11201020,
10201120,
11201020,
30030030,
3333,
39,
,
000000000000000000000000000000000000000000000008,
#GOGOEND
#END
COURSE:Normal
LEVEL:4
BALLOON:9,7,9,12
#START
1100,
1100,
1100,
1100,
#BPMCHANGE 200
33000000,
,
33000000,
,
11,
1,
11,
1,
11,
1,
11,
22,
11,
1012,
11,
1012,
11,
1012,
11,
22,
#BPMCHANGE 100
11401140,
11401140,
#BPMCHANGE 200
11,
11,
11,
11,
#BPMCHANGE 100
11401140,
11401140,
#BPMCHANGE 200
11,
11,
11,
1,
#GOGOSTART
10101003,
03000000,
10101003,
03000000,
10101003,
03000010,
7,
0800,
1210,
1210,
7,
8,
10101004,
04000000,
10101004,
04000000,
10101004,
04000010,
7,
0800,
1012,
1012,
1012,
1012,
3003,
3333,
39,
,
000000000000000000000000000000000000000000000008,
#GOGOEND
#END
COURSE:Easy
LEVEL:3
BALLOON:7,6,7,9
#START
1100,
1100,
1100,
1100,
#BPMCHANGE 200
11000000,
,
11000000,
,
1,
,
1,
,
1,
,
11,
1,
1,
0001,
1,
0001,
1,
0001,
1,
2,
#BPMCHANGE 100
1414,
1414,
#BPMCHANGE 200
11,
11,
11,
1,
#BPMCHANGE 100
1414,
1414,
#BPMCHANGE 200
11,
11,
11,
1,
#GOGOSTART
10101003,
,
10101003,
,
10101003,
,
7,
0800,
11,
11,
7,
8,
10101004,
,
10101004,
,
10101004,
,
7,
0800,
0022,
2,
0022,
2,
3003,
3333,
39,
,
000000000000000000000000000000000000000000000008,
#GOGOEND
#END