forked from ESE/ESE
364 lines
14 KiB
Plaintext
364 lines
14 KiB
Plaintext
//TJADB Project
|
|
TITLE:I★my★me★mine
|
|
TITLEJA:I★my★me★mine
|
|
SUBTITLE:--Dream5/Tamagotchi!
|
|
SUBTITLEJA:「たまごっち!」より
|
|
BPM:182
|
|
WAVE:I★my★me★mine.ogg
|
|
OFFSET:-1.871
|
|
DEMOSTART:57.585
|
|
|
|
COURSE:Oni
|
|
LEVEL:6
|
|
BALLOON:3,15
|
|
SCOREINIT:660
|
|
SCOREDIFF:170
|
|
|
|
|
|
#START
|
|
|
|
|
|
#GOGOSTART
|
|
300000000000000000000000300000000000000000000000,
|
|
300000000000100000000000100000000000100000000000,
|
|
300000000000300000000000300000000000300000000000,
|
|
300000000000200000100000200000100100100000100000,
|
|
400000000000400000000000400000000000400000000000,
|
|
400000000000200000100000200000100100200000100000,
|
|
100000000000100000200000000000100000000000500000,
|
|
000000000000000008000000100000000000200000200000,
|
|
100000000000000000100000100000000000200000100000,
|
|
000000100000100000100000100100100100200000000000,
|
|
100000000000200000000000100000100000200000100000,
|
|
000000100000200000000000100000100000200000000000,
|
|
100000000000200000000000100000100000200000100000,
|
|
000000200000200000000000100000100000200000000000,
|
|
100000000000200000000000100000100000200000100000,
|
|
000000100000200000000000100000100000200000000000,
|
|
100000000000200000000000100000100000000000200000,
|
|
|
|
#GOGOEND
|
|
000000100000100000100000100100100100200000000000,
|
|
100000000000100000000000200000000000100000100000,
|
|
100000000000100000000000200000200000200000000000,
|
|
100000000000100000000000200000000000100000100000,
|
|
100000000000100000000000200000200000200000000000,
|
|
100000000000100000000000200000000000100000100000,
|
|
100000000000100000000000200000200000200000000000,
|
|
100000000000100000000000200000100000100000300000,
|
|
000000700000000000800000000000100000200000100000,
|
|
100000000000200000000000100000100000200000000000,
|
|
100000000000200000000000100000100000200000000000,
|
|
100000000000200000000000100000100000200000000000,
|
|
100000000000200000000000100000100000200000000000,
|
|
100000000000200000000000100000200000200000000000,
|
|
100000000000200000000000100000200000200000000000,
|
|
100000100100100000200000000000100000000000100000,
|
|
000000200000200000000000100000000000100000000000,
|
|
100000000000000000100000100000000000200000000000,
|
|
100000000000000000100000100000000000200000000000,
|
|
100000000000000000100000100000000000200000100000,
|
|
000000100000100000100000100000100100200000100000,
|
|
100000000000200000000000100000100000200000000000,
|
|
100000000000200000000000100000100000200000000000,
|
|
100000000000200000100000000000100000200000100000,
|
|
000000100000200000000000100000100100200000100000,
|
|
000000100000100000000000100000000000100000000000,
|
|
|
|
#GOGOSTART
|
|
300000000000300000000000300000000000300000000000,
|
|
300000000000200000100000200000100100100000100000,
|
|
400000000000400000000000400000000000400000000000,
|
|
400000000000200000100000200000100100200000100000,
|
|
100000000000200000100000200000100000200000100000,
|
|
100000000000400000000000400000000000400000000000,
|
|
700000000000000000000000000000000000000000000000,
|
|
000800000000300000000000300000000000400000000000,
|
|
300000000000300000000000300000000000300000000000,
|
|
300000000000200000100000200000100100100000100000,
|
|
400000000000400000000000400000000000400000000000,
|
|
400000000000200000100000200000100100200000100000,
|
|
100000000000100000200000000000100000000000500000,
|
|
000000000000000008000000100000000000200000200000,
|
|
100000000000000000100000100000000000200000100000,
|
|
000000100000100000100000100000100100200000000000,
|
|
100000000000200000000000100000100000200000100000,
|
|
000000100000200000100000100000100100100000000000,
|
|
100000000000200000000000100000100000200000100000,
|
|
000000200000200000000000100000100100200000000000,
|
|
100000000000200000000000100000100000200000100000,
|
|
000000100000200000100000100000100100100000000000,
|
|
100000000000200000000000100000100000100000200000,
|
|
000000100000100000100000100100100100200000000000,
|
|
|
|
#GOGOEND
|
|
300000000000000000000000000000000000000000000000,
|
|
|
|
|
|
#END
|
|
|
|
|
|
COURSE:Hard
|
|
LEVEL:5
|
|
BALLOON:5,15
|
|
SCOREINIT:740
|
|
SCOREDIFF:228
|
|
|
|
|
|
#START
|
|
|
|
|
|
#GOGOSTART
|
|
#SCROLL 0.8
|
|
300000000000000000000000300000000000000000000000,
|
|
300000000000100000000000100000000000100000000000,
|
|
300000000000300000000000300000000000300000000000,
|
|
300000000000200000200000000000200000000000000000,
|
|
400000000000400000000000400000000000400000000000,
|
|
400000000000100000100000000000100000000000000000,
|
|
100000000000100000200000000000100000000000500000,
|
|
000000000000000080000000100000000000200000200000,
|
|
100000000000000000100000100000000000100000100000,
|
|
000000100000100000100000200000200000200000000000,
|
|
100000000000200000000000200000000000000000200000,
|
|
000000200000200000000000000000000000000000000000,
|
|
100000000000200000000000100000000000000000200000,
|
|
200000200000000000200000000000000000000000000000,
|
|
100000000000200000000000200000000000000000200000,
|
|
000000200000200000000000000000000000000000000000,
|
|
100000000000200000000000300000000000000000000000,
|
|
#GOGOEND
|
|
000000000000000000000000000000100000200000000000,
|
|
100000000000100000200000000000100000200000000000,
|
|
100000000000100000200000000000100000100000100000,
|
|
100000000000200000200000000000200000000000200000,
|
|
000000000000100000000000100000000000100000000000,
|
|
100000000000100000200000000000100000200000000000,
|
|
100000000000100000200000000000100000100000100000,
|
|
100000000000100000200000000000100000100000700000,
|
|
000000000800000000000000000000100000200000000000,
|
|
100000000000100000200000000000100000200000200000,
|
|
100000000000100000200000000000100000100000100000,
|
|
100000000000200000200000000000200000000000200000,
|
|
000000000000100000000000100000000000100000000000,
|
|
100000000000100000200000000000100000200000200000,
|
|
100000000000100000200000000000100000100000100000,
|
|
100000000000100000200000000000100000100000500000,
|
|
000000000000000080000000100000000100000000000000,
|
|
100000000000000000000000200000200000200000000000,
|
|
100000200000000000200000000000200000000000000000,
|
|
100000000000000000000000100000100000100000200000,
|
|
000000200000000000000000000000100000100000500000,
|
|
000000000000000080000000000000100000100000500000,
|
|
000000000000000080000000000000000000000000000000,
|
|
300000000000000000000000300000000000000000000000,
|
|
400000000000000000000000400000000000000000000000,
|
|
600000000000000000000000000000000080000000000000,
|
|
#GOGOSTART
|
|
300000000000300000000000300000000000300000000000,
|
|
300000000000200000200000000000200000000000000000,
|
|
400000000000400000000000400000000000400000000000,
|
|
400000000000100000100000000000100000000000000000,
|
|
100000000000200000000000100000000000100000100000,
|
|
100000000000400000000000400000000000400000000000,
|
|
700000000000000000000000000000000000000000800000,
|
|
000000000000300000000000300000000000400000000000,
|
|
300000000000300000000000300000000000300000000000,
|
|
300000000000200000200000000000200000000000000000,
|
|
400000000000400000000000400000000000400000000000,
|
|
400000000000100000100000000000100000000000000000,
|
|
100000000000100000200000000000100000000000500000,
|
|
000000000000000080000000100000000000200000200000,
|
|
100000000000000000100000100000000000100000100000,
|
|
000000100000100000100000200000200000200000000000,
|
|
100000000000200000000000200000000000000000200000,
|
|
000000200000200000000000100000100000200000000000,
|
|
100000000000200000000000100000000000000000200000,
|
|
200000200000000000200000100000100000200000000000,
|
|
100000000000200000000000200000000000000000200000,
|
|
000000200000200000000000100000100000200000000000,
|
|
100000000000600000000000000000000000000000000000,
|
|
000000000000000000000000000000000080000000000000,
|
|
#GOGOEND
|
|
300000000000000000000000000000000000000000000000,
|
|
|
|
|
|
#END
|
|
|
|
|
|
COURSE:Normal
|
|
LEVEL:3
|
|
BALLOON:15,4,10,15
|
|
SCOREINIT:930
|
|
SCOREDIFF:503
|
|
|
|
|
|
#START
|
|
|
|
|
|
#GOGOSTART
|
|
#SCROLL 0.8
|
|
300000000000000000000000300000000000000000000000,
|
|
300000000000000000000000000000000000000000000000,
|
|
300000000000300000000000300000000000300000000000,
|
|
300000000000000000000000000000000000000000000000,
|
|
400000000000400000000000400000000000400000000000,
|
|
400000000000000000000000000000000000000000000000,
|
|
300000000000000000300000000000000000000000900000,
|
|
,
|
|
,
|
|
8,
|
|
100000000000000000000000100000000000100000000000,
|
|
100000000000000000000000000000000000000000000000,
|
|
200000000000000000000000200000000000000000000000,
|
|
200000000000000000000000000000000000000000000000,
|
|
100000000000000000000000100000000000100000000000,
|
|
100000000000000000000000000000000000000000000000,
|
|
000000000000100000000000300000000000000000000000,
|
|
#GOGOEND
|
|
000000000000000000000000000000000000000000000000,
|
|
100000000000000000000000000000000000000000000000,
|
|
100000000000000000000000000000000000000000000000,
|
|
100000000000000000000000100000000000100000000000,
|
|
100000000000000000000000000000000000000000000000,
|
|
100000000000000000000000000000000000000000000000,
|
|
100000000000000000000000000000000000000000000000,
|
|
100000000000000000000000100000000000000000700000,
|
|
000000000800000000000000000000000000000000000000,
|
|
100000000000000000000000200000000000000000000000,
|
|
100000000000000000000000200000000000000000000000,
|
|
100000000000000000000000100000000000100000000000,
|
|
100000000000000000000000000000000000000000000000,
|
|
100000000000000000000000200000000000000000000000,
|
|
100000000000000000000000200000000000000000000000,
|
|
100000000000000000100000000000100000000000500000,
|
|
000000000000000000000080000000000000000000000000,
|
|
100000000000000000000000100000000000000000000000,
|
|
100000000000000000000000000000000000000000000000,
|
|
200000000000000000000000200000000000200000000000,
|
|
200000000000000000000000000000500000000000000000,
|
|
000000000000000080000000000000500000000000000000,
|
|
000000000000000080000000000000000000000000000000,
|
|
300000000000000000000000300000000000000000000000,
|
|
400000000000000000000000400000000000000000000000,
|
|
600000000000000000000000000000000080000000000000,
|
|
#GOGOSTART
|
|
300000000000300000000000300000000000300000000000,
|
|
300000000000000000000000000000000000000000000000,
|
|
400000000000400000000000400000000000400000000000,
|
|
400000000000000000000000000000000000000000000000,
|
|
100000000000000000000000100000000000000000000000,
|
|
100000000000400000000000400000000000400000000000,
|
|
700000000000000000000000000000000000000000800000,
|
|
000000000000300000000000300000000000300000000000,
|
|
300000000000300000000000300000000000300000000000,
|
|
300000000000000000000000000000000000000000000000,
|
|
400000000000400000000000400000000000400000000000,
|
|
400000000000000000000000000000000000000000000000,
|
|
300000000000000000300000000000000000000000900000,
|
|
,
|
|
,
|
|
8,
|
|
100000000000100000000000100000000000000000000000,
|
|
100000000000000000000000000000000000000000000000,
|
|
200000000000200000000000200000000000000000000000,
|
|
200000000000000000000000000000000000000000000000,
|
|
100000000000100000000000100000000000000000000000,
|
|
100000000000000000000000000000000000000000000000,
|
|
000000000000600000000000000000000000000000000000,
|
|
000000000000000000000000000000000080000000000000,
|
|
#GOGOEND
|
|
300000000000000000000000000000000000000000000000,
|
|
|
|
|
|
#END
|
|
|
|
|
|
COURSE:Easy
|
|
LEVEL:2
|
|
BALLOON:10,2,6,10
|
|
SCOREINIT:850
|
|
SCOREDIFF:340
|
|
|
|
|
|
#START
|
|
|
|
|
|
#GOGOSTART
|
|
#SCROLL 0.8
|
|
600000000000000000000000000000000000000000000080,
|
|
000000000000000000000000000000000000000000000000,
|
|
300000000000000000000000300000000000000000000000,
|
|
300000000000000000000000000000000000000000000000,
|
|
400000000000000000000000400000000000000000000000,
|
|
400000000000000000000000000000000000000000000000,
|
|
300000000000000000000000000000000000000000900000,
|
|
,
|
|
,
|
|
8,
|
|
100000000000000000000000100000000000000000000000,
|
|
100000000000000000000000000000000000000000000000,
|
|
200000000000000000000000200000000000000000000000,
|
|
200000000000000000000000000000000000000000000000,
|
|
100000000000000000000000100000000000000000000000,
|
|
100000000000000000000000000000000000000000000000,
|
|
100000000000000000000000300000000000000000000000,
|
|
#GOGOEND
|
|
000000000000000000000000000000000000000000000000,
|
|
100000000000000000000000000000000000000000000000,
|
|
100000000000000000000000000000000000000000000000,
|
|
100000000000000000000000100000000000000000000000,
|
|
100000000000000000000000000000000000000000000000,
|
|
100000000000000000000000000000000000000000000000,
|
|
100000000000000000000000000000000000000000000000,
|
|
100000000000000000000000100000000000000000700000,
|
|
000000000800000000000000000000000000000000000000,
|
|
100000000000000000000000000000000000000000000000,
|
|
100000000000000000000000000000000000000000000000,
|
|
100000000000000000000000100000000000000000000000,
|
|
100000000000000000000000000000000000000000000000,
|
|
100000000000000000000000200000000000000000000000,
|
|
100000000000000000000000200000000000000000000000,
|
|
100000000000000000000000100000000000000000500000,
|
|
000000000000000080000000000000000000000000000000,
|
|
100000000000000000000000100000000000000000000000,
|
|
100000000000000000000000000000000000000000000000,
|
|
200000000000000000000000200000000000000000000000,
|
|
200000000000000000000000000000500000000000000000,
|
|
000000000000000080000000000000500000000000000000,
|
|
000000000000000080000000000000000000000000000000,
|
|
300000000000000000000000300000000000000000000000,
|
|
400000000000000000000000400000000000000000000000,
|
|
600000000000000000000000000080000000000000000000,
|
|
#GOGOSTART
|
|
300000000000000000000000300000000000000000000000,
|
|
300000000000000000000000000000000000000000000000,
|
|
400000000000000000000000400000000000000000000000,
|
|
400000000000000000000000000000000000000000000000,
|
|
100000000000000000000000100000000000000000000000,
|
|
100000000000000000000000400000000000400000000000,
|
|
700000000000000000000000000000000000000000800000,
|
|
000000000000300000000000300000000000300000000000,
|
|
300000000000000000000000300000000000000000000000,
|
|
300000000000000000000000000000000000000000000000,
|
|
400000000000000000000000400000000000000000000000,
|
|
400000000000000000000000000000000000000000000000,
|
|
300000000000000000000000000000000000000000900000,
|
|
,
|
|
,
|
|
8,
|
|
100000000000000000000000100000000000000000000000,
|
|
100000000000000000000000000000000000000000000000,
|
|
200000000000000000000000200000000000000000000000,
|
|
200000000000000000000000000000000000000000000000,
|
|
100000000000000000000000100000000000000000000000,
|
|
100000000000000000000000000000000000000000000000,
|
|
000000000000600000000000000000000000000000000000,
|
|
000000000000000000000000000080000000000000000000,
|
|
#GOGOEND
|
|
300000000000000000000000000000000000000000000000,
|
|
|
|
|
|
#END
|
|
|