Files
2023-01-17 00:45:18 -05:00

314 lines
3.9 KiB
Plaintext

//TJADB Project
TITLE:Korokoro Cocotama!
TITLEJA:ころころここたま!
SUBTITLE:--ERIKA/Kamisama Minarai Himitsu no Cocotama
SUBTITLEJA:「かみさまみならい ヒミツのここたま」より
BPM:160
WAVE:Korokoro Cocotama!.ogg
OFFSET:-1.628
DEMOSTART:40.620
COURSE:Oni
LEVEL:8
BALLOON:4,4
SCOREINIT:630
SCOREDIFF:163
#START
,
11221122,
1022202070008000,
1010202011102020,
1010221011102011,
1010202011102020,
02220222,
01212121,
2022202010102010,
01017080,
12112022,
1011101020222020,
1110111011102010,
0010111010222000,
12112022,
1011101020222020,
1110111022201020,
0020222020000000,
22221111,
2020202000102011,
11221111,
2020202011222110,
1111200011122000,
1122200012222000,
1110112012202220,
500000000000000000000000000008000000000000000000,
#GOGOSTART
1020102011112220,
1011202011112220,
1000201022201011,
21214040,
1020102011112220,
1011202022112220,
2000201022201021,
11214040,
1011102010111020,
1110111022202000,
1011102010111020,
1110111011221120,
1120112011112220,
1011202011112220,
1000201022201011,
2011201040004000,
1120112011112220,
1011202022112222,
1000201022201021,
1011201040004000,
1011102010111020,
1110111022202000,
33403340,
03034040,
600000000000000000000000000000000000000008000000,
0030003011221120,
#GOGOEND
1010202011102020,
1010221011102011,
1010202011102020,
02220222,
0011201120112030,
#END
COURSE:Hard
LEVEL:5
BALLOON:3,7
SCOREINIT:720
SCOREDIFF:210
#START
,
11221122,
500000000000000000000000000000000008000000000000,
10101120,
12120001,
01201222,
02220222,
01111111,
500000000000000000000000000000000000000008000000,
01017080,
10112022,
11220020,
30303003,
03303020,
10112022,
11220020,
30303004,
04404000,
22221111,
22220002,
02221111,
22220000,
1212,
1212,
500000000000000000000000000000000008000000000000,
7008,
#GOGOSTART
12121122,
01122112,
20404002,
02114040,
12121122,
02211221,
10404002,
02224040,
10112020,
1110,
10112020,
2220,
12121122,
11221122,
10404002,
02114040,
12121122,
12211221,
20404002,
01214040,
1122,
100000000000100000000000500000000008000000000000,
33403340,
03034040,
600000000000000000000000000000000000000008000000,
03033000,
#GOGOEND
10101120,
12120001,
02201222,
02220222,
01111113,
#END
COURSE:Normal
LEVEL:3
BALLOON:7,6,3,3
SCOREINIT:810
SCOREDIFF:330
#START
,
11,
500000000000000000000000000000000008000000000000,
1110,
1100,
1110,
03000300,
09000090,
8,
,
11,
1100,
30303003,
0330,
11,
1100,
30303004,
0440,
22,
2200,
22,
2200,
1212,
1212,
500000000000000000000000000000000008000000000000,
7008,
#GOGOSTART
1111,
11,
10404003,
0344,
1111,
11,
10404003,
0344,
11,
2220,
11,
2220,
1111,
11,
10404003,
0344,
1111,
11,
10404003,
0344,
11,
2220,
3434,
03003030,
600000000000000000000000000000000000000008000000,
03033000,
#GOGOEND
1110,
1100,
1111,
07008700,
800000600000000000000000000000000000000008000000,
#END
COURSE:Easy
LEVEL:3
BALLOON:3,3,6,4,3,3
SCOREINIT:980
SCOREDIFF:560
#START
,
11,
500000000000000000000000000008000000000000000000,
11,
1,
11,
07008700,
89000090,
8,
,
1,
1,
30303006,
000000000000000000000008000000000000000000000000,
1,
1,
30303006,
000000000000000000000008000000000000000000000000,
2,
2,
2,
2,
11,
11,
500000000000000000000000000000000008000000000000,
7008,
#GOGOSTART
1110,
11,
10303006,
000000000000000000000000000008000000000000000000,
1110,
11,
10303006,
000000000000000000000000000008000000000000000000,
11,
22,
11,
22,
1110,
11,
10303006,
000000000000000000000000000008000000000000000000,
1110,
11,
10303006,
000000000000000000000000000008000000000000000000,
11,
22,
33,
04004040,
600000000000000000000000000000000008000000000000,
03003000,
#GOGOEND
11,
1,
11,
07008700,
800000600000000000000000000000000000000008000000,
#END