Files
2023-06-15 19:05:10 -05:00

324 lines
3.0 KiB
Plaintext

//TJADB Project
TITLE:LUCKYSTAR
TITLEJA:LUCKYSTAR
SUBTITLE:--Tomohiro Hatano/Uchuu Sentai Kyuranger
SUBTITLEJA:「宇宙戦隊キュウレンジャー」より
BPM:188
WAVE:LUCKYSTAR.ogg
OFFSET:-1.914
DEMOSTART:42.097
COURSE:Oni
LEVEL:5
BALLOON:25,25,120
SCOREINIT:920
SCOREDIFF:235
#START
5,
000000000000000000000000000000000008000000000000,
7,
0008,
6,
000000000000000000000000000000000008000000000000,
1010201011111020,
,
10121010,
12101210,
10121010,
12101210,
10121010,
12101210,
10121010,
1020101011100020,
11121120,
12111220,
11121120,
12111220,
11121120,
12111220,
1010102010102011,
11112210,
10012010,
10102100,
10012010,
1010101020111010,
11221212,
11221212,
11223333,
,//32
#GOGOSTART
10211221,
01212120,
30030034,
01201120,
10211221,
01212120,
30030034,
0010202010101111,
10211221,
01212120,
30030034,
0010201110102010,
10211221,
01212127,
,
08,//48
#GOGOEND
11121120,
12111223,
40034003,
4000003040111000,
11121121,
1020300030111010,
2011101020111010,
2020001120700000,
,
,
,
,
,
,
,
,
0080,
#END
COURSE:Hard
LEVEL:5
BALLOON:20,14,28
SCOREINIT:930
SCOREDIFF:270
#START
5,
000000000000000000000000000000000008000000000000,
7,
0008,
6,
000000000000000000000000000000000008000000000000,
11020102,
,
10111010,
1110,
10111010,
1110,
10111010,
1110,
10111010,
1000100011100000,
11111010,
11111000,
11111010,
11111000,
11111010,
11111000,
11111010,
11112000,
10012000,
10102100,
10012000,
1120,
10201120,
10210120,
11103333,
,//32
#GOGOSTART
10201021,
01210120,
30030030,
,
10201021,
01210120,
30030030,
0012,
10201021,
01210120,
30030030,
01201020,
10201021,
01210129,
0009,
8,//48
#GOGOEND
11221010,
11221000,
44,
44,
11221010,
11221000,
33,
30004900,
,
09,
8,
,
,
,
,
,
,
#END
COURSE:Normal
LEVEL:3
BALLOON:14,7,10,18
#START
5,
000000000000000000000000000000000008000000000000,
7,
0008,
6,
000000000000000000000000000000000008000000000000,
9009,
8,
1110,
1110,
5,
08000000,
1110,
1100,
5,
08000000,
1111,
1110,
5,
08000000,
1111,
1110,
5,
08000000,
12,
12,
12,
2220,
1110,
2220,
50000008,
,//32
#GOGOSTART
1202,
0202,
30030030,
,
1202,
0202,
30030030,
01,
1202,
0202,
30030030,
02,
1202,
00200029,
0009,
8,//48
#GOGOEND
1111,
1110,
33,
33,
1111,
1110,
33,
30000900,
,
09,
8,
,
,
,
,
,
,
#END
COURSE:Easy
LEVEL:3
BALLOON:12,6,7,7,7,7,7,15
#START
#SCROLL 0.75
5,
000000000000000000000000000000000008000000000000,
7,
0008,
6,
000000000000000000000000000000000008000000000000,
9009,
8,
1,
11,
7,
8,
1,
1100,
7,
8,
1,
1110,
7,
8,
1,
1100,
7,
8,
02,
02,
02,
2220,
11,
11,
50000008,
,//32
#GOGOSTART
11,
1110,
30030030,
,
22,
2220,
30030030,
,
11,
2220,
30030030,
,
22,
10101009,
0009,
8,//48
#GOGOEND
1110,
1110,
33,
33,
1110,
1110,
33,
39,
,
09,
8,
,
,
,
,
,
00080000,
#END