forked from ESE/ESE
353 lines
12 KiB
Plaintext
353 lines
12 KiB
Plaintext
//TJADB Project
|
||
TITLE:Let’s! Fresh Pretty Cure!
|
||
TITLEJA:Let's!フレッシュプリキュア!
|
||
SUBTITLE:--Mizuki Moie/Fresh Pretty Cure!
|
||
BPM:173
|
||
WAVE:Let’s! Fresh Pretty Cure!.ogg
|
||
OFFSET:-2.185
|
||
DEMOSTART:4.750
|
||
|
||
COURSE:Oni
|
||
LEVEL:4
|
||
BALLOON:16
|
||
SCOREINIT:720
|
||
SCOREDIFF:190
|
||
|
||
|
||
#START
|
||
|
||
|
||
#MEASURE 2/4
|
||
,
|
||
#MEASURE 4/4
|
||
33,
|
||
#MEASURE 2/4
|
||
3,
|
||
|
||
#GOGOSTART
|
||
#MEASURE 4/4
|
||
100000000000200000100100100000000000200000000000,
|
||
100000100000200000000000100000100000200000000000,
|
||
100000000000200000100100100000000000200000000000,
|
||
100000100000200000000000100000100000200000000000,
|
||
100000000000200000100100100000000000200000000000,
|
||
100000100000200000100000100000100000200000000000,
|
||
100000000000000000000000700000000000000000000000,
|
||
000000000000000000000000000000800000000000000000,
|
||
|
||
#GOGOEND
|
||
100000000000200000100000000000100000200000000000,
|
||
000000000000200000000000200000000000200000000000,
|
||
100000000000200000100000000000100000200000000000,
|
||
000000000000200000000000200000000000200000000000,
|
||
100000100000100000000000100000000000200000100000,
|
||
000000100000200000000000100000100000200000000000,
|
||
100000100000100000000000100000000000200000100000,
|
||
000000100000200000000000100000100000200000000000,
|
||
100000100000200000000000100000100000200000100000,
|
||
000000100000200000100000000000200000200000000000,
|
||
100000100000200000000000100000100000200000100000,
|
||
000000100000200000100000000000000000000000000000,
|
||
100000100000100000000000100000000000200000100000,
|
||
000000100000200000000000100000100000200000000000,
|
||
100000100000100000000000100000000000200000100000,
|
||
000000100000200000000000100000100000200000000000,
|
||
100000100000200000000000100000100000200000100000,
|
||
000000100000200000100000000000200000200000000000,
|
||
100000100000200000000000100000100000200000000000,
|
||
100000000000200000000000100000100000200000200000,
|
||
100000000000200000100000000000100000200000100000,
|
||
000000100000200000000000100000100000200000200000,
|
||
100000000000200000100000000000100000200000100000,
|
||
000000100000000000000000100000100000200000200000,
|
||
100000000000200000100000000000100000200000100000,
|
||
000000100000200000000000100000100000200000100000,
|
||
200000100000200000100000200000100000200000100000,
|
||
100000100000200000100000200000000000200000000000,
|
||
200000100000200000100000200000100000100100100000,
|
||
300000000000000000000000300000000000000000000000,
|
||
300000000000000000000000300000000000000000000000,
|
||
|
||
#GOGOSTART
|
||
100000000000200000100100100000100000200000000000,
|
||
100000100000200000000000100000100000200000000000,
|
||
100000000000200000100100100000100000200000000000,
|
||
100000100000200000000000100000100000200000000000,
|
||
100000000000200000100100100000100000200000100000,
|
||
100000100000200000100000100000100000200000000000,
|
||
300000000000000000000000600000000000000000000008,
|
||
000000000000300000000000300000300000000000000000,
|
||
100000000000200000100100100000100000400000000000,
|
||
100000100000200000000000100000100000200000000000,
|
||
100000000000200000100100100000100000400000000000,
|
||
100000100000200000000000100000100000200000000000,
|
||
100000000000200000100100100000100000400000000000,
|
||
100000100000200000100000100000100000200000000000,
|
||
300000000000000000300000300000000000400000000000,
|
||
300000000000000000000000300000000000000000300000,
|
||
100000100000200000100000000000300000000000300000,
|
||
000000400000300000000000000000000000000000000000,
|
||
|
||
#GOGOEND
|
||
|
||
|
||
#END
|
||
|
||
|
||
COURSE:Hard
|
||
LEVEL:4
|
||
BALLOON:10,10
|
||
SCOREINIT:990
|
||
SCOREDIFF:270
|
||
|
||
|
||
#START
|
||
|
||
|
||
#MEASURE 2/4
|
||
,
|
||
#MEASURE 4/4
|
||
33,
|
||
#MEASURE 2/4
|
||
3,
|
||
|
||
#GOGOSTART
|
||
100000000000000000100000100000000000200000000000,
|
||
100000000000200000000000100000000000200000000000,
|
||
100000000000000000100000100000000000200000000000,
|
||
100000000000200000000000100000000000200000000000,
|
||
100000000000000000100000100000000000200000000000,
|
||
300000000000000000000000300000000000300000000000,
|
||
300000000000000000000000600000000000000000000000,
|
||
000000000000000000000008000000000000000000000000,
|
||
|
||
#GOGOEND
|
||
100000000000000000000000000000000000100000000000,
|
||
000000000000200000000000200000000000200000000000,
|
||
100000000000000000000000000000000000100000000000,
|
||
000000000000200000000000200000000000200000000000,
|
||
100000100000100000000000000000000000100000100000,
|
||
000000000000200000000000000000100000100000000000,
|
||
100000100000100000000000000000000000100000100000,
|
||
000000000000200000000000000000200000200000000000,
|
||
100000100000200000000000100000100000200000100000,
|
||
000000100000100000000000000000000000000000000000,
|
||
100000100000200000000000100000100000200000100000,
|
||
000000100000100000000000000000000000000000000000,
|
||
100000100000100000000000000000000000100000100000,
|
||
000000000000200000000000000000100000100000000000,
|
||
100000100000100000000000000000000000100000100000,
|
||
000000000000200000000000000000200000200000000000,
|
||
100000100000200000000000100000100000200000100000,
|
||
000000100000100000000000000000000000000000000000,
|
||
100000100000200000000000100000100000200000000000,
|
||
100000000000100000000000000000000000000000000000,
|
||
100000000000000000100000200000100000000000100000,
|
||
000000000000000000000000100000000000200000000000,
|
||
100000000000000000100000200000100000000000100000,
|
||
000000100000000000000000000000000000000000000000,
|
||
100000000000000000100000200000100000000000100000,
|
||
000000000000000000000000100000000000200000000000,
|
||
700000000000000000000000000000000000000000000000,
|
||
000000000000800000000000100000000000200000000000,
|
||
700000000000000000000000000000000000000000000000,
|
||
000000000000800000000000300000000000000000000000,
|
||
300000000000000000000000300000000000000000000000,
|
||
|
||
#GOGOSTART
|
||
100000000000000000100000100000000000200000000000,
|
||
100000000000200000000000100000000000200000000000,
|
||
100000000000000000100000100000000000200000000000,
|
||
100000000000200000000000100000000000200000000000,
|
||
100000000000000000100000100000000000200000000000,
|
||
300000000000400000000000300000000000400000000000,
|
||
300000000000000000000000300000000000000000000000,
|
||
000000000000000000000000000000000000000000000000,
|
||
100000000000000000100000100000000000400000000000,
|
||
100000000000200000000000100000000000200000000000,
|
||
100000000000000000100000100000000000400000000000,
|
||
100000000000200000000000100000000000200000000000,
|
||
100000000000000000100000100000000000400000000000,
|
||
300000000000000000000000300000000000300000000000,
|
||
300000000000000000000000300000000000400000000000,
|
||
300000000000000000000000300000000000000000000000,
|
||
600000000000000000000000000000000000000000000008,
|
||
|
||
#GOGOEND
|
||
|
||
|
||
#END
|
||
|
||
|
||
COURSE:Normal
|
||
LEVEL:3
|
||
BALLOON:10,10,8
|
||
SCOREINIT:1210
|
||
SCOREDIFF:440
|
||
|
||
|
||
#START
|
||
|
||
|
||
#MEASURE 2/4
|
||
,
|
||
#MEASURE 4/4
|
||
33,
|
||
#MEASURE 2/4
|
||
3,
|
||
|
||
#GOGOSTART
|
||
100000000000000000000000200000000000000000000000,
|
||
100000000000100000000000100000000000000000000000,
|
||
100000000000000000000000200000000000000000000000,
|
||
200000000000200000000000200000000000000000000000,
|
||
100000000000000000000000200000000000000000000000,
|
||
100000000000100000000000100000000000000000000000,
|
||
300000000000000000000000600000000000000000000000,
|
||
000000000000000000000000000008000000000000000000,
|
||
|
||
#GOGOEND
|
||
700000000000000000000000000000000000000000000000,
|
||
000000000000000000000000800000000000000000000000,
|
||
700000000000000000000000000000000000000000000000,
|
||
000000000000000000000000800000000000000000000000,
|
||
100000000000000000000000100000000000100000000000,
|
||
000000000000200000000000000000000000000000000000,
|
||
100000000000000000000000100000000000100000000000,
|
||
000000000000200000000000000000000000000000000000,
|
||
100000000000200000000000000000000000200000000000,
|
||
000000000000200000000000000000000000000000000000,
|
||
100000000000200000000000000000000000200000000000,
|
||
000000000000200000000000000000000000000000000000,
|
||
100000000000000000000000100000000000100000000000,
|
||
000000000000200000000000000000000000000000000000,
|
||
100000000000000000000000100000000000100000000000,
|
||
000000000000200000000000000000000000000000000000,
|
||
100000000000200000000000000000000000200000000000,
|
||
000000000000200000000000000000000000000000000000,
|
||
100000000000200000000000000000000000200000000000,
|
||
000000000000200000000000000000000000000000000000,
|
||
100000000000000000000000200000000000000000000000,
|
||
100000000000000000000000100000000000100000000000,
|
||
100000000000000000000000200000000000000000000000,
|
||
100000000000000000000000100000000000100000000000,
|
||
100000000000000000000000200000000000000000000000,
|
||
100000000000000000000000000000000000000000000000,
|
||
100000000000000000000000100000000000000000000000,
|
||
000000000000000000000000100000000000100000000000,
|
||
100000000000000000000000500000000000000000000008,
|
||
000000000000000000000000300000000000000000000000,
|
||
300000000000000000000000300000000000000000000000,
|
||
|
||
#GOGOSTART
|
||
100000000000000000000000200000000000000000000000,
|
||
100000000000100000000000100000000000000000000000,
|
||
100000000000000000000000200000000000000000000000,
|
||
200000000000200000000000200000000000000000000000,
|
||
100000000000000000000000200000000000000000000000,
|
||
100000000000100000000000100000000000000000000000,
|
||
300000000000000000000000300000000000000000000000,
|
||
000000000000000000000000000000000000000000000000,
|
||
100000000000000000000000200000000000000000000000,
|
||
100000000000100000000000100000000000000000000000,
|
||
100000000000000000000000200000000000000000000000,
|
||
200000000000200000000000200000000000000000000000,
|
||
100000000000000000000000200000000000000000000000,
|
||
100000000000100000000000100000000000000000000000,
|
||
300000000000000000000000300000000000000000000000,
|
||
300000000000000000000000300000000000000000000000,
|
||
9,
|
||
0800,
|
||
|
||
#GOGOEND
|
||
|
||
|
||
#END
|
||
|
||
|
||
COURSE:Easy
|
||
LEVEL:3
|
||
BALLOON:5,6,6,5
|
||
SCOREINIT:1220
|
||
SCOREDIFF:550
|
||
|
||
|
||
#START
|
||
|
||
|
||
#MEASURE 2/4
|
||
,
|
||
#MEASURE 4/4
|
||
7,
|
||
#MEASURE 2/4
|
||
8,
|
||
|
||
#GOGOSTART
|
||
100000000000000000000000000000000000000000000000,
|
||
100000000000100000000000100000000000000000000000,
|
||
100000000000000000000000000000000000000000000000,
|
||
200000000000200000000000200000000000000000000000,
|
||
100000000000000000000000000000000000000000000000,
|
||
300000000000000000000000300000000000000000000000,
|
||
300000000000000000000000600000000000000000000000,
|
||
000000000000000000000008000000000000000000000000,
|
||
|
||
#GOGOEND
|
||
7,
|
||
08,
|
||
7,
|
||
08,
|
||
100000000000000000000000100000000000100000000000,
|
||
000000000000000000000000000000000000000000000000,
|
||
100000000000000000000000100000000000100000000000,
|
||
000000000000000000000000000000000000000000000000,
|
||
200000000000200000000000000000000000000000000000,
|
||
200000000000000000000000000000000000200000000000,
|
||
200000000000000000000000000000000000000000000000,
|
||
000000000000000000000000000000000000000000000000,
|
||
100000000000000000000000100000000000100000000000,
|
||
000000000000000000000000000000000000000000000000,
|
||
100000000000000000000000100000000000100000000000,
|
||
000000000000000000000000000000000000000000000000,
|
||
200000000000200000000000000000000000000000000000,
|
||
200000000000000000000000000000000000200000000000,
|
||
200000000000000000000000200000000000000000000000,
|
||
000000000000000000000000000000000000000000000000,
|
||
100000000000000000000000200000000000000000000000,
|
||
100000000000000000000000000000000000000000000000,
|
||
100000000000000000000000200000000000000000000000,
|
||
100000000000000000000000000000000000000000000000,
|
||
100000000000000000000000200000000000000000000000,
|
||
100000000000000000000000100000000000100000000000,
|
||
500000000000000000000000000000000000000000000008,
|
||
000000000000000000000000100000000000100000000000,
|
||
500000000000000000000000000000000000000000000008,
|
||
000000000000000000000000000000000000000000000000,
|
||
000000000000000000000000000000000000000000000000,
|
||
|
||
#GOGOSTART
|
||
100000000000000000000000000000000000000000000000,
|
||
100000000000100000000000100000000000000000000000,
|
||
100000000000000000000000000000000000000000000000,
|
||
200000000000200000000000200000000000000000000000,
|
||
100000000000000000000000000000000000000000000000,
|
||
300000000000000000000000300000000000000000000000,
|
||
600000000000000000000000000000000000000000000008,
|
||
000000000000000000000000000000000000000000000000,
|
||
100000000000000000000000000000000000000000000000,
|
||
100000000000100000000000100000000000000000000000,
|
||
100000000000000000000000000000000000000000000000,
|
||
200000000000200000000000200000000000000000000000,
|
||
100000000000000000000000000000000000000000000000,
|
||
300000000000000000000000300000000000000000000000,
|
||
300000000000000000000000000000000000000000000000,
|
||
300000000000000000000000300000000000000000000000,
|
||
9,
|
||
0800,
|
||
|
||
#GOGOEND
|
||
|
||
|
||
#END
|
||
|