Files
2023-06-15 19:15:39 -05:00

378 lines
13 KiB
Plaintext

//TJADB Project
TITLE:Motteke! Sailor Fuku
TITLEJA:もってけ!セーラーふく
SUBTITLE:--Satoru K feat. Aya Hirano/Lucky☆Star
SUBTITLEJA:「らき☆すた」より
BPM:149.19
WAVE:Motteke! Sailor Fuku.ogg
OFFSET:-1.825
DEMOSTART:53.037
COURSE:Oni
LEVEL:8
SCOREINIT:650
SCOREDIFF:150
#START
100000000100000000100000100000000100000000100000,
#BPMCHANGE 150.58
#SCROLL 0.99
100000000100000000100000000000400000000000100000,
#BPMCHANGE 148.88
#SCROLL 1
100000000100000000100000100000000100000000100000,
#BPMCHANGE 152.88
#SCROLL 0.98
100000000100000000100000000000400000000000100200,
#BPMCHANGE 148.55
#SCROLL 1
100000200000000000100100200000200000000000100100,
#BPMCHANGE 150
100000100100200000100000200200200000200000100100,
#BPMCHANGE 150.97
#SCROLL 0.99
100000000000300000200200100000000000400000000000,
#BPMCHANGE 148.57
#SCROLL 1
100200100200100000100200100200100000500000000000,
#BPMCHANGE 150
000000000000000000000000000000000000008000000000,
100000200200200100000100200000200000100000200000,
100200200200200000100200000200100000200000100000,
100200200000100200200000100100200200100200200000,
100000100100200000100000100100200000100000100100,
100000200200000200200000200200000200200000200000,
100100100200100000100100100200100000100100100200,
100000200200000200200000200200200000000000100000,
100100100000100100100000100100200200100100100000,
100100100000100100100000100100200200100000200000,
100100100100200000100100100200200000100100100100,
200200200200100100200200100100100100100000000000,
000000200200200100000100200000200000100000200000,
100000200200200100000100200000200200100000200000,
100200200200200100000100200200200000100000200000,
100200000200100200200000100200100200100000000000,
100000100100200000100000200000100200000100200200,
200000100100200000100000200000100200000100200000,
100000100100200000100000200000100200000100200200,
100000100100200000100000200000100200000100200000,
000000300000000000100200200000100200000100200200,
100000100000100000200200100000200100000200100000,
100100200200100000100200200100100000100100200000,
#BPMCHANGE 149.8
100100200200100100200200100200200100000000000000,
#BPMCHANGE 150
#GOGOSTART
000000100000000000100000000000100000000000100000,
000000100000000000100000000000100000200000100000,
000000100000000000100000000000100000000000100000,
000000100000000000100000000000100000200000100000,
000000100000000000100000000000100000200000100000,
000000100000000000100000200000100000200000100000,
200000100000100000100000100000100000100000100000,
100000100000100100100100100100100100100000000000,
100000200200100000200100000100100200100000200000,
100000200200100000200100000100100200100000200000,
100000200200100000200100000100100200100000200000,
100000200200100000200100200000100000100000100000,
100000100200100000200100200100100000100000200000,
100000100000100000200100200100100000100000200000,
100100200000100200000200100100200000100200000200,
#BPMCHANGE 150.77
#SCROLL 0.99
100100200000100100200200100100200200100000000000,
#BPMCHANGE 150.26
#GOGOEND
100000200100000200100000100000200100000200100000,
#BPMCHANGE 150
#SCROLL 1
100000200100000200100000000000400000000000100200,
#BPMCHANGE 150.3
#SCROLL 0.99
100100100000300000200200100100100000400000200200,
#BPMCHANGE 150.5
100100100000100100200000300000000000000000000000,
#END
COURSE:Hard
LEVEL:7
SCOREINIT:840
SCOREDIFF:255
#START
100000000100000000100000100000000000000000000000,
#BPMCHANGE 150.58
#SCROLL 0.99
100000000100000000100000000000300000000000000000,
#BPMCHANGE 148.88
#SCROLL 1
100000000100000000100000100000000000000000000000,
#BPMCHANGE 152.88
#SCROLL 0.98
100000000100000000100000000000400000000000100100,
#BPMCHANGE 148.55
#SCROLL 1
100000000000000000100100100000000000000000100100,
#BPMCHANGE 150
100000000000100000000000100100100000100000000000,
#BPMCHANGE 150.97
#SCROLL 0.99
100100100000300000000000200200200000400000000000,
#BPMCHANGE 148.57
#SCROLL 1
100100100000100100100000100100100000500000000000,
#BPMCHANGE 150
000000000000000000000000000008000000000000000000,
100000100100000100100000100000000000000000000000,
100000100100000100100000100000000000000000000000,
100100000000100100000000100000000000000000000000,
100000100100100000100000100100100000100000100100,
100000000000200000000000000000000000200000000000,
100000100100100000100000100100100000100000100100,
100000000000200000000000400000000000000000000000,
100100100000100100100000100100100000100000000000,
100100100000100100100000100100100000100000000000,
200000200000000000200000200000000000200000200000,
000000200000200000000000100100100100100000000000,
100000100100000100100000200000200000200000000000,
100000100100000100100000100000000000000000000000,
100000100100000100100000200000200000200000000000,
100000100100000100100000100000000000000000000000,
000000100000100000000000200000000200000000200000,
000000100000100000000000200000000200000000200000,
000000100000100000000000200000000200000000200000,
000000100000100000000000200000000200000000200000,
000000300000000000000000200000000200000000200000,
000000100000100000000000200000000200000000200000,
100000100000100100100000100000100000100100100000,
#BPMCHANGE 149.8
100000100000100100100000100000100000100000000000,
#BPMCHANGE 150
#GOGOSTART
100000000000100000000000100000000000100000000000,
100000000000100000000000100000200000100000000000,
100000000000100000000000100000000000100000000000,
100000000000100000000000100000200000100000200000,
100000000000100000000000100000000000100000000000,
100000000000100000000000100000200000100000000000,
100000000000100000000000100000000000100000000000,
100000000000100100100000100100100100100000000000,
100000200000100000000100000100100000200000000000,
100000200000100000000100000100100000200000000000,
100000200000100000000100000100100000200000000000,
100000200000100000000100000000000000000000000000,
100000200000100000000100000100100000200000000000,
100000200000100000000100000100100000200000000000,
500000000000000000000000000000000000000000000000,
#BPMCHANGE 150.77
#SCROLL 0.99
000000000000000000000008000000000000000000000000,
#BPMCHANGE 150.26
#GOGOEND
100000200100000200100000100000000000000000000000,
#BPMCHANGE 150
#SCROLL 1
100000200100000200100000000000300000000000000000,
#BPMCHANGE 150.3
#SCROLL 0.99
100100100000300000000000200200200000400000000000,
#BPMCHANGE 150.5
100100100000100100100000300000000000000000000000,
#END
COURSE:Normal
LEVEL:6
SCOREINIT:1030
SCOREDIFF:378
#START
100000000000100000000000100000000000000000000000,
#BPMCHANGE 150.58
#SCROLL 0.99
100000000000100000000000000000300000000000000000,
#BPMCHANGE 148.88
#SCROLL 1
100000000000100000000000100000000000000000000000,
#BPMCHANGE 152.88
#SCROLL 0.98
100000000000100000000000000000400000000000100000,
#BPMCHANGE 148.55
#SCROLL 1
100000100000000000100000100000100000000000100000,
#BPMCHANGE 150
100000100000000000100000100000000000100000000000,
#BPMCHANGE 150.97
#SCROLL 0.99
000000000000400000000000000000000000400000000000,
#BPMCHANGE 148.57
#SCROLL 1
100000000000100000000000100000000000500000000000,
#BPMCHANGE 150
000000000000000000000008000000000000000000000000,
100000000000000000100000100000000000000000000000,
100000000000000000100000100000000000000000000000,
100000000000000000100000100000000000000000000000,
100000100000100000000000100000100000100000000000,
100000000000000000000000200000000000000000000000,
100000100000100000000000100000100000100000000000,
100000000000000000000000400000000000000000000000,
100000000000100000100000100000000000100000000000,
100000100000100000000000100000100000100000000000,
200000000000200000000000200000200000200000000000,
200000200000200000000000300000300000300000000000,
100000000000000000100000100000000000000000000000,
100000000000000000000000200000000000000000000000,
100000000000000000100000100000000000000000000000,
100000000000000000000000200000000000000000000000,
000000100000100000000000100000000000100000000000,
000000100000100000000000100000000000100000000000,
000000100000100000000000100000000000100000000000,
000000100000100000000000100000000000100000000000,
000000300000000000000000100000000000100000000000,
000000100000100000000000100000000000100000000000,
100000000000000000000000100000000000000000000000,
#BPMCHANGE 149.8
100000100000100000100000100000000000000000000000,
#BPMCHANGE 150
#GOGOSTART
100000000000100000000000100000000000100000000000,
100000000000100000000000100000000000100000000000,
100000000000100000000000100000000000100000000000,
100000000000000000000000000000000000000000000000,
100000000000100000000000100000000000100000000000,
100000000000100000000000100000000000100000000000,
100000000000100000000000100000000000100000000000,
100000000000100000100000100000100000100000000000,
000000100000100000000000100000000000100000100000,
000000100000100000000000100000000000100000100000,
000000100000100000000000100000000000100000100000,
000000100000000000000000000000000000000000000000,
100000000000100000100000000000000000100000100000,
000000100000000000100000000000000000000000000000,
500000000000000000000000000000000000000000000000,
#BPMCHANGE 150.77
#SCROLL 0.99
000000000000000000000008000000000000000000000000,
#BPMCHANGE 150.26
#GOGOEND
100000000000100000000000100000100000000000000000,
#BPMCHANGE 150
#SCROLL 1
100000000000100000100000000000300000000000000000,
#BPMCHANGE 150.3
#SCROLL 0.99
200000000000400000000000200000000000400000000000,
#BPMCHANGE 150.5
300000000000300000000000300000000000000000000000,
#END
COURSE:Easy
LEVEL:3
SCOREINIT:860
SCOREDIFF:450
#START
100000000000100000000000100000000000000000000000,
#BPMCHANGE 150.58
#SCROLL 0.99
100000000000000000000000000000300000000000000000,
#BPMCHANGE 148.88
#SCROLL 1
100000000000100000000000100000000000000000000000,
#BPMCHANGE 152.88
#SCROLL 0.98
100000000000000000000000000000300000000000000000,
#BPMCHANGE 148.55
#SCROLL 1
100000000000000000000000100000000000000000000000,
#BPMCHANGE 150
100000000000000000000000100000000000000000000000,
#BPMCHANGE 150.97
#SCROLL 0.99
000000000000300000000000000000000000400000000000,
#BPMCHANGE 148.57
#SCROLL 1
100000000000000000000000100000000000500000000000,
#BPMCHANGE 150
000000000000000000000008000000000000000000000000,
100000000000100000000000100000000000000000000000,
100000000000100000000000100000000000000000000000,
100000000000000000000000100000000000000000000000,
100000000000100000000000100000000000100000000000,
100000000000000000000000000000000000000000000000,
100000000000100000000000100000000000100000000000,
100000000000000000000000400000000000000000000000,
100000000000200000000000100000000000200000000000,
100000000000000000000000100000000000000000000000,
100000000000200000000000100000000000200000000000,
100000000000000000000000300000000000000000000000,
000000000000200000000000000000000000000000000000,
000000000000200000000000000000000000000000000000,
000000000000200000000000000000000000000000000000,
000000000000200000000000000000000000000000000000,
100000000000000000000000100000000000100000000000,
000000000000000000000000100000000000100000000000,
000000000000000000000000100000000000100000000000,
000000000000000000000000100000000000100000000000,
000000000000000000000000100000000000100000000000,
000000000000000000000000100000000000100000000000,
100000000000000000000000100000000000000000000000,
#BPMCHANGE 149.8
100000000000100000000000100000000000000000000000,
#BPMCHANGE 150
#GOGOSTART
100000000000100000000000100000000000100000000000,
100000000000000000000000100000000000000000000000,
100000000000100000000000100000000000100000000000,
100000000000000000000000000000000000000000000000,
100000000000100000000000100000000000100000000000,
100000000000000000000000100000000000000000000000,
500000000000000000000000000000000000000000000000,
000000000000000000000008000000000000000000000000,
100000000000100000000000200000000000200000000000,
100000000000000000000000200000000000000000000000,
100000000000100000000000200000000000200000000000,
100000000000000000000000000000000000000000000000,
100000000000100000000000200000000000200000000000,
100000000000000000000000200000000000000000000000,
500000000000000000000000000000000000000000000000,
#BPMCHANGE 150.77
#SCROLL 0.99
000000000000000000000008000000000000000000000000,
#BPMCHANGE 150.26
#GOGOEND
100000000000100000000000100000000000000000000000,
#BPMCHANGE 150
#SCROLL 1
100000000000000000000000000000300000000000000000,
#BPMCHANGE 150.3
#SCROLL 0.99
000000000000400000000000000000000000400000000000,
#BPMCHANGE 150.5
300000000000000000000000300000000000000000000000,
#END