Files
2023-06-15 19:05:10 -05:00

414 lines
5.7 KiB
Plaintext

//TJADB Project
TITLE:Nimensei☆Ura-omote Life!
TITLEJA:にめんせい☆ウラオモテライフ!
SUBTITLE:--Aimi Tanaka/Himouto! Umaru-Chan R
SUBTITLEJA:「干物妹!うまるちゃんR」より
BPM:170
WAVE:Nimensei☆Ura-omote Life!.ogg
OFFSET:-0.705
DEMOSTART:59.492
COURSE:Oni
LEVEL:8
BALLOON:4,4,5,4,4,12,4
SCOREINIT:630
SCOREDIFF:170
#START
#BARLINEOFF
0004,
#BARLINEON
1002001010404010,
1002001010404000,
1022200010020010,
1002001070008000,
1002001010020010,
1002001070008000,
1022202010001000,
34303430,
34333440,//10
#GOGOSTART
1022102010221020,
1102102010112000,
1022102010221020,
1102102010112000,
1022102010221020,
1202102010212000,
1001102010011020,
#MEASURE 15/8
3003004070000000//18
#BPMCHANGE 232.8
#GOGOEND
80000000000000,
#BPMCHANGE 225
#MEASURE 8/4
#SCROLL 0.5
100200102200102201001100,
200100201100202102002102,
000200102200102201000200,
200100201203000000000000,//22
#BPMCHANGE 170
#MEASURE 4/4
#SCROLL 1
#GOGOSTART
,//23
#GOGOEND
1022102010201010,
0022101020002000,
500000000000000008000000200000000000200000100000,//26
#GOGOSTART
,//27
#GOGOEND
1022102010201010,
0022101020204000,
0022102020101020,//30
#GOGOSTART
3003003030004000,//31
#GOGOEND
2010221022102010,
0010221020304000,
2010221022102050,
000000000008000000400000300000000000300000000000,
1022102010404000,
1102202010404010,
1120102070008000,
3003003030004000,//39
#GOGOSTART
1001012010404010,
1001012010404010,
1021012010210020,
1021001030004000,
1021102010210020,
1021002070008000,
1001012010210000,
3003003040003000,
1021012010404010,
1021012010404000,
70000008,
1022102210221020,
1110401210104010,
1110401210404010,
1210401012104012,
1021003030004000,//55
#GOGOEND
1001002210210020,
1001002070008000,
1021202210201000,
34303430,
34333440,
#END
COURSE:Hard
LEVEL:6
BALLOON:4,3,9
SCOREINIT:600
SCOREDIFF:160
#START
#BARLINEOFF
,
#BARLINEON
1001001010000000,
2002002020000000,
0010100010010010,
2002002010000000,
1001001020020020,
1001001010000000,
1001001020002000,
33303330,
33333440,//10
#GOGOSTART
11101110,
1000101010111000,
11102220,
1000101010111000,
11102220,
1000101010222000,
1001001020020020,
#MEASURE 15/8
1001001070000000//18
#BPMCHANGE 232.8
#GOGOEND
80000000000000,
#BPMCHANGE 225
#MEASURE 8/4
#SCROLL 0.5
100100100000100101000000,
100100100000200202000000,
100100100000200202000000,
100000200202000000000000,//22
#BPMCHANGE 170
#MEASURE 4/4
#SCROLL 1
#GOGOSTART
,//23
#GOGOEND
10221021,
01102020,
10102021,//26
#GOGOSTART
,//27
#GOGOEND
10201021,
01102240,
02211221,//30
#GOGOSTART
3003003030004000,//31
#GOGOEND
10102221,
000000100000000000500000000000000008000000000000,
10102225,
000000000008000000100000100000000000100000000000,
1011100010004000,
1011100010002020,
500000000000000000000000000000000000000008000000,
3003003030004000,//39
#GOGOSTART
1001001010404000,
1001001010404000,
1011100020020020,
1001001010002000,
1011100020020020,
1001001070008000,
1001001010010000,
3003003030004000,
1001001010404000,
1001001010404000,
1011100020020020,
7008,
1000400010004011,
1000400010404011,
1000401110004000,
3003003030004000,//55
#GOGOEND
1001001020020020,
1001001010000000,
11221010,
34303430,
33333440,
,
#END
COURSE:Normal
LEVEL:5
BALLOON:6,7
#START
#BARLINEOFF
,
#BARLINEON
11,
22,
11,
2002000020000000,
1001000010010000,
1001000010000000,
500000000000000000000000000008000000000000000000,
33303330,
33303000,//10
#GOGOSTART
10101110,
1110,
10101110,
2220,
10101110,
2220,
1001000010010000,
#MEASURE 15/8
70000000//18
#BPMCHANGE 232.8
#GOGOEND
8000000,
#BPMCHANGE 225
#MEASURE 8/4
#SCROLL 0.5
10101110,
10101110,
20202220,
200000000000200000000050000000000000000008000000,//22
#BPMCHANGE 170
#MEASURE 4/4
#SCROLL 1
#GOGOSTART
,//23
#GOGOEND
10001001,
01101000,
10001011,//26
#GOGOSTART
,//27
#GOGOEND
10001001,
01103000,
000000500000000000000000000000000008000000000000,//30
#GOGOSTART
3003000030000000,//31
#GOGOEND
10101111,
01010000,
20202225,
000000000000000000000000000000000008000000000000,
10111000,
10111000,
9009,
8,//39
#GOGOSTART
1001000010000000,
1001000010000000,
22,
500000000000000000000000000000000008000000000000,
22,
1001000010000000,
22,
3003000030000000,
1001000010000000,
2002000020000000,
33,
600000000000000000000000000000000008000000000000,
10001011,
10002022,
20022000,
3003000030000000,//55
#GOGOEND
1001000010010000,
1001000010000000,
500000000000000000000000000000000008000000000000,
33303330,
33303040,
,
#END
COURSE:Easy
LEVEL:3
BALLOON:5,6
#START
#BARLINEOFF
,
#BARLINEON
1,
1,
11,
500000000000000000000000000008000000000000000000,
11,
500000000000000000000000000008000000000000000000,
1011,
33,
3330,//10
#GOGOSTART
11,
1110,
11,
1110,
22,
2220,
11,
#MEASURE 15/8
70000000//18
#BPMCHANGE 232.8
#GOGOEND
8000000,
#BPMCHANGE 225
#MEASURE 8/4
#SCROLL 0.5
11,
1110,
22,
200000000000200000000050000000000000000008000000,//22
#BPMCHANGE 170
#MEASURE 4/4
#SCROLL 1
#GOGOSTART
,//23
#GOGOEND
10001001,
0011,
500000000000000000000000000000000000000008000000,//26
#GOGOSTART
,//27
#GOGOEND
10001001,
0011,
000000500000000000000000000008000000000000000000,//30
#GOGOSTART
33,//31
#GOGOEND
10101001,
01030000,
10101005,
000000000000000000000000000008000000000000000000,
1110,
2220,
9009,
8,//39
#GOGOSTART
11,
22,
1110,
500000000000000000000000000008000000000000000000,
11,
2220,
1110,
33,
1110,
2220,
33,
600000000000000000000000000008000000000000000000,
1110,
1110,
22,
33,//55
#GOGOEND
11,
500000000000000000000000000008000000000000000000,
1011,
33,
3334,
,
#END