Files
2023-06-15 19:15:39 -05:00

481 lines
12 KiB
Plaintext

//TJADB Project
TITLE:Oshiri Kajiri Mushi
TITLEJA:おしりかじり虫
SUBTITLE:--Oshiri Kajiri Mushi/Minna no Uta
SUBTITLEJA:「NHKみんなのうた」より
BPM:120
WAVE:Oshiri Kajiri Mushi.ogg
OFFSET:-2.221
DEMOSTART:86.218
COURSE:Oni
LEVEL:3
BALLOON:15,21
SCOREINIT:660
SCOREDIFF:150
#START
400000300000300000400000000000000000000000000000,
400000300000300000400000000000000000300000000000,
200000100000100000100000200000100000100000200000,
100000200000100000000000200000000000000000000000,
200000100000100000100000200000100000100000200000,
100000200000100000000000200000000000000000000000,
200000100000000000100000200000100000000000100000,
200000100000000000100000200000000000200000000000,
200000100000000000100000200000000000100000200000,
100000000000200000000000100000000000000000000000,
200000100000100000100000200000100000100000200000,
100000200200200000200000100000000000000000000000,
200000100000100000100000200000100000100000200000,
100000200200200000200000100000000000000000000000,
100000200200200000200000100000100000200000000000,
100000200200200000200000100000200000200000000000,
100000200200200000100000200000200000100000000000,
200000200200200000200000100000100000200000000000,
200000100000100000100000200000100000100000200000,
100000200000000000200000100000100000200000000000,
200000100000100000100000200000100000100000200000,
100000200000000000200000100000100000200000000000,
100000200200200000200000100000100000200000000000,
200000100000100000200000100000000000000000000000,
700000000000000000000000000000000000000000000000,
000000000000000000000000800000000000000000000000,
200000100000100000100000200000100000100000200000,
100000200200200000200000100000000000100000000000,
200000100000100000100000200000100000100000200000,
100000200200200000200000100000000000100000000000,
100000100000200200200000100000100000200000000000,
100000200200200000200000100000200000100000000000,
100000100000200200200000100000100000200000000000,
100000200200200000200000100000200000100000000000,
300000300000400000400000300000300000400000000000,
400000300000300000400000300000000000000000000000,
700000000000000000000000000000000000000000000000,
000000000000000000000000000000000000800000000000,
100000000000200000000000100000100000200000100000,
200000000000100000000000200000200000100000200000,
100000000000200000000000100000100000200000100000,
200000000000100000000000200000200000200200200000,
200000100000100000100000200000100000000000200000,
100000100000200000100100100000100000200000000000,
200000100000100000100000200000100000000000200000,
100000100000200000100100100000100000100000000000,
200000100000100000100000200000100000100000200000,
100000100000200000100100100000100000200000200000,
100000100000200000100100100000200000200000000000,
400000000000300000000000300000000000400000000000,
300000000000000000000000000000000000000000000000,
#GOGOSTART
200000100000100000100000200000100000100000200000,
100000200000000000200000000000200000000000200000,
200000100000100000100000200000100000100000200000,
100000200000000000200000000000200000000000200000,
200000100000100000100000200000100000100000200000,
100000200000000000200000100000200000100000000000,
200000100000100000100000200000100000100000200000,
100000200000000000200000100000200000100000000000,
#GOGOEND
300000000000000000000000000000000000000000000000,
#END
COURSE:Hard
LEVEL:3
SCOREINIT:600
SCOREDIFF:160
#START
30030000,
30030000,
#SECTION
#BRANCHSTART p,50,75
#N
1122,
1,
1122,
1,
11,
1011,
11,
1110,
#E
1122,
1,
1122,
1,
1212,
1211,
1211,
2220,
#M
1122,
1,
1122,
1,
12021202,
12021010,
12021012,
1110,
#SECTION
#BRANCHSTART p,75,90
#N
1122,
1,
1122,
1,
11,
1110,
22,
2220,
#E
1122,
1,
1122,
1,
11201220,
11201000,
12201220,
12201000,
#M
21112112,
1,
21112112,
1,
11201120,
1022202010000000,
12212210,
1022202010000000,
#SECTION
#BRANCHSTART p,50,75
#N
1122,
500000000000000000000008000000000000000000000000,
1122,
500000000000000000000008000000000000000000000000,
11,
2220,
7,
08,
#E
1122,
12020000,
1122,
12020000,
11021010,
21122000,
7,
08,
#M
21112112,
12020000,
21112112,
12020000,
11021010,
21122000,
7,
08,
#SECTION
#BRANCHSTART p,50,75
#N
1122,
500000000000000000000008000000000000000000000000,
1122,
500000000000000000000008000000000000000000000000,
1210,
1110,
1210,
1110,
3344,
43343000,
7,
0800,
1102,
1102,
1102,
1100,
#E
1122,
12021000,
1122,
12021000,
11201010,
12201010,
11201010,
12201010,
3344,
43343000,
7,
0800,
10111020,
10112020,
10111020,
10112220,
#M
21112112,
12021010,
21112112,
12021010,
11201010,
12201210,
11201010,
12201210,
3344,
43343000,
7,
0800,
10111020,
10112012,
10111020,
10112220,
#SECTION
#BRANCHSTART p,50,75
#N
1122,
500000000000000000000008000000000000000000000000,
1122,
500000000000000000000008000000000000000000000000,
1122,
500000000000000000000008000000000000000000000000,
600000000000000000000008000000000000000000000000,
3330,
3,
#E
1122,
500000000000000000000008000000000000000000000000,
1122,
500000000000000000000008000000000000000000000000,
1122,
500000000000000000000008000000000000000000000000,
600000000000000000000008000000000000000000000000,
3333,
3,
#M
21112102,
500000000000000000000008000000000000000000000000,
21112102,
500000000000000000000008000000000000000000000000,
21112112,
500000000000000000000008000000000000000000000000,
600000000000000000000008000000000000000000000000,
4334,
3,
#GOGOSTART
#SECTION
#BRANCHSTART p,50,75
#N
1111,
1,
1111,
500000000000000000000008000000000000000000000000,
1111,
1,
1111,
500000000000000000000008000000000000000000000000,
3,
#E
10101011,
1110,
10101011,
1120,
10101011,
1110,
10101011,
1120,
3,
#M
21112112,
1110,
21112112,
1120,
21112112,
1110,
21112112,
1120,
3,
#BRANCHEND
#GOGOEND
#END
COURSE:Normal
LEVEL:1
BALLOON:8,4,5
SCOREINIT:970
SCOREDIFF:320
#START
000000000000000000000000000000000000000000000000,
000000000000000000000000000000000000000000000000,
100000000000000000000000100000000000000000000000,
100000000000000000000000000000000000000000000000,
100000000000000000000000100000000000000000000000,
100000000000000000000000000000000000000000000000,
100000000000000000000000100000000000000000000000,
100000000000000000000000100000000000100000000000,
100000000000000000000000100000000000000000000000,
100000000000100000000000100000000000000000000000,
100000000000000000000000100000000000000000000000,
100000000000000000000000000000000000000000000000,
100000000000000000000000100000000000000000000000,
100000000000000000000000000000000000000000000000,
100000000000000000000000100000000000000000000000,
100000000000100000000000100000000000000000000000,
200000000000000000000000200000000000000000000000,
200000000000200000000000200000000000000000000000,
100000000000000000000000100000000000000000000000,
500000000000800000000000000000000000000000000000,
100000000000000000000000100000000000000000000000,
500000000000800000000000000000000000000000000000,
100000000000000000000000100000000000000000000000,
100000000000100000000000100000000000000000000000,
700000000000000000000000000000000000000000000000,
000000000000000000000000800000000000000000000000,
100000000000000000000000100000000000000000000000,
500000000000800000000000000000000000000000000000,
100000000000000000000000100000000000000000000000,
500000000000800000000000000000000000000000000000,
100000000000000000000000100000000000000000000000,
100000000000100000000000100000000000000000000000,
100000000000000000000000100000000000000000000000,
200000000000200000000000200000000000000000000000,
300000000000000000000000300000000000000000000000,
300000000000300000000000300000000000000000000000,
000000000000000000000000000000000000000000000000,
000000000000000000000000000000000000000000000000,
100000000000100000000000000000000000000000000000,
100000000000100000000000000000000000000000000000,
100000000000100000000000000000000000000000000000,
100000000000100000000000000000000000000000000000,
100000000000100000000000100000000000000000000000,
500000000000800000000000000000000000000000000000,
100000000000100000000000100000000000000000000000,
500000000000800000000000000000000000000000000000,
100000000000100000000000100000000000000000000000,
500000000000800000000000000000000000000000000000,
600000000000800000000000000000000000000000000000,
300000000000300000000000300000000000000000000000,
300000000000000000000000000000000000000000000000,
#GOGOSTART
100000000000100000000000100000000000100000000000,
500000000000800000000000000000000000000000000000,
100000000000100000000000100000000000100000000000,
500000000000800000000000000000000000000000000000,
100000000000100000000000100000000000100000000000,
700000000000000000000000000080000000000000000000,
100000000000100000000000100000000000100000000000,
900000000000000000000000000000000000000000800000,
#GOGOEND
#END
COURSE:Easy
LEVEL:1
BALLOON:6,3,4
SCOREINIT:1140
SCOREDIFF:460
#START
000000000000000000000000000000000000000000000000,
000000000000000000000000000000000000000000000000,
100000000000000000000000100000000000000000000000,
100000000000000000000000000000000000000000000000,
100000000000000000000000100000000000000000000000,
100000000000000000000000000000000000000000000000,
100000000000000000000000100000000000000000000000,
100000000000000000000000100000000000000000000000,
100000000000000000000000100000000000000000000000,
100000000000100000000000100000000000000000000000,
100000000000000000000000100000000000000000000000,
100000000000000000000000000000000000000000000000,
100000000000000000000000100000000000000000000000,
100000000000000000000000000000000000000000000000,
100000000000000000000000100000000000000000000000,
100000000000000000000000100000000000000000000000,
200000000000000000000000200000000000000000000000,
200000000000000000000000200000000000000000000000,
100000000000000000000000100000000000000000000000,
500000000000800000000000000000000000000000000000,
100000000000000000000000100000000000000000000000,
500000000000800000000000000000000000000000000000,
100000000000000000000000100000000000000000000000,
100000000000100000000000100000000000000000000000,
700000000000000000000000000000000000000000000000,
000000000000000000000000800000000000000000000000,
100000000000000000000000100000000000000000000000,
500000000000800000000000000000000000000000000000,
100000000000000000000000100000000000000000000000,
500000000000800000000000000000000000000000000000,
100000000000000000000000100000000000000000000000,
100000000000000000000000100000000000000000000000,
100000000000000000000000100000000000000000000000,
200000000000000000000000200000000000000000000000,
300000000000000000000000300000000000000000000000,
300000000000300000000000300000000000000000000000,
000000000000000000000000000000000000000000000000,
000000000000000000000000000000000000000000000000,
100000000000000000000000000000000000000000000000,
100000000000000000000000000000000000000000000000,
100000000000000000000000000000000000000000000000,
100000000000000000000000000000000000000000000000,
100000000000000000000000100000000000000000000000,
500000000000800000000000000000000000000000000000,
100000000000000000000000100000000000000000000000,
500000000000800000000000000000000000000000000000,
100000000000000000000000100000000000000000000000,
500000000000800000000000000000000000000000000000,
600000000000800000000000000000000000000000000000,
300000000000000000000000300000000000000000000000,
300000000000000000000000000000000000000000000000,
#GOGOSTART
100000000000000000000000100000000000000000000000,
500000000000800000000000000000000000000000000000,
100000000000000000000000100000000000000000000000,
500000000000800000000000000000000000000000000000,
100000000000000000000000100000000000000000000000,
700000000000000000000000000080000000000000000000,
100000000000000000000000100000000000000000000000,
900000000000000000000000000000000000800000000000,
#GOGOEND
#END